Приветствую Вас Гость

SAO's Legend
Торрент-Трекер » HDRip » Драма

Последнее лицо / The Last Face (HDRip) скачать торрент

[ Раздача закрыта по требованию правообладателя ]



Последнее лицо / The Last Face (HDRip) скачать торрент

Информация о фильме
Название:Последнее Лицо
Оригинальное название:The Last Face
Год выхода:2016
Жанр:Драма
Режиссер:Шон Пенн
В ролях:Шарлиз Терон / Charlize Theron , Хавьер Бардем / Javier Bardem , Адель Экзаркопулос / Adele Exarchopoulos (Ellen), Джаред Харрис / Jared Harris (Dr. John Farber), Жан Рено / Jean Reno (Dr. Love), Денис Ньюман / Denise Newman (Sarie), Оскар Бест / Oscar Best (Doctor Brown), Zubin Cooper (Moussa)

О фильме:Директор международной гуманитарной организации в Африке встречается с врачом гуманитарной помощи во время политической/социальной революции. Вместе им предстоит пережить эти непростые времена.

Страна:США
Продолжительность:02:10:38
Перевод:Профессиональный (многоголосый, закадровый) | СВ Студия
Субтитры:Нет

Файл
Кодек:XviD
Качество:HDRip
Видео:640x272 (2.35:1), 23.976 fps, XviD build 73 ~607 kbps avg, 0.14 bit/pixel
Звук:48 kHz, MPEG Layer 3, 2 ch, ~128.00 kbps avg

MediaInfo
General
Complete name : The.Last.Face.2016.HDRip.ot.Portablius.avi
Format : AVI
Format/Info : Audio Video Interleave
File size : 696 MiB
Duration : 2 h 10 min
Overall bit rate : 745 kb/s
Writing application : VirtualDubMod 1.5.10.3 | www.virtualdub-fr.org || (build 2550/release)
Writing library : VirtualDubMod build 2550/release

Video
ID : 0
Format : MPEG-4 Visual
Format profile : Advanced Simple@L5
Format settings, BVOP : 1
Format settings, QPel : No
Format settings, GMC : No warppoints
Format settings, Matrix : Custom
Codec ID : XVID
Codec ID/Hint : XviD
Duration : 2 h 10 min
Bit rate : 608 kb/s
Width : 640 pixels
Height : 272 pixels
Display aspect ratio : 2.35:1
Frame rate : 23.976 (24000/1001) FPS
Original frame rate : 23.976 (23976/1000) FPS
Color space : YUV
Chroma subsampling : 4:2:0
Bit depth : 8 bits
Scan type : Progressive
Compression mode : Lossy
Bits/(Pixel*Frame) : 0.146
Stream size : 568 MiB (82%)
Writing library : XviD 73

Audio
ID : 1
Format : MPEG Audio
Format version : Version 1
Format profile : Layer 3
Codec ID : 55
Codec ID/Hint : MP3
Duration : 2 h 10 min
Bit rate mode : Constant
Bit rate : 128 kb/s
Channel(s) : 2 channels
Sampling rate : 48.0 kHz
Compression mode : Lossy
Stream size : 120 MiB (17%)
Alignment : Aligned on interleaves
Interleave, duration : 42 ms (1.00 video frame)
Interleave, preload duratio : 504 ms
Writing library : LAME3.99r
Encoding settings : -m s -V 4 -q 2 -lowpass 17 -b 128


ЗалилEvgen Portable
Ссылка Последнее лицо / The Last Face (HDRip) скачать торрент находится под похожими раздачами Download Torrent
Последнее лицо / The Last Face (HDRip) скачать торрент
Скриншоты Последнее лицо / The Last Face

скачать торрент, Игры на PC, Download Torrent, мультфильм, фильм, hdrip, Драма
Добавил: SxS | Просмотров: 13 | Рейтинг: 0.0/0
Добавлять комментарии могут только зарегистрированные пользователи.
[ Регистрация | Вход ]
Ужасы [55]
Horrors
Фантастика [57]
Fantastic
Боевик [66]
Action
Триллер [53]
Thriller
Криминал [1]
Crime
Военный [2]
Military
Вестерн [7]
Western
Документальный [6]
Documentary
Биография [1]
Biography
Драма [184]
Drama
Мелодрама [11]
Melodrama
Комедия [48]
Comedy
Мюзикл [3]
Musical
Приключения [4]
Adventure
Пародия [3]
Parody
Мультфильмы [13]
Cartoons
Мультсериал [1]
Animated series
Аниме [2]
Anime
Форма входа
Поиск
Лучшие раздачи