Приветствую Вас Гость

World of Warships [SOI] RU+CIS
Торрент-Трекер » HDRip » Драма

Полной грудью / Breathe In (HDRip) скачать торрент

[ ]



Полной грудью / Breathe In (HDRip) скачать торрент Драма - Торрент-Трекер

Информация о фильме
Название: Полной грудью
Оригинальное название: Breathe In
Год выхода: 2013
Жанр: драма, мелодрама
Режиссер: Дрэйк Доремус
В ролях: Гай Пирс, Фелисити Джонс, Эми Райан, Кайл МакЛоклен, Александра Уэнтуорт

О фильме: Когда иностранная студентка по обмену прибывает в маленький городок на севере штата Нью-Йорк, она навсегда меняет взаимоотношения в принявшей ее семье, а также жизни членов этой семьи.

Страна: США
Продолжительность: 01:37:14
Перевод: Профессиональный (многоголосый, закадровый) Первый канал
Субтитры: Нет

Файл
Кодек: XviD
Качество: HDRip
Видео: 720x304 (2.37:1), 23.976 fps, XviD build 73 ~933 kbps avg, 0.18 bit/pixel
Звук: 48 kHz, MPEG Layer 3, 2 ch, ~128.00 kbps avg

MediaInfo
General
Complete name: Breathe.in.2013.HDRip.ot.Portablius.avi
Format: AVI
Format/Info: Audio Video Interleave
File size: 745 MiB
Duration: 1 h 37 min
Overall bit rate: 1 071 kb/s
Writing application: VirtualDubMod 1.5.10.3 | www.virtualdub-fr.org || (build 2550/release)
Writing library: VirtualDubMod build 2550/release

Video
ID: 0
Format: MPEG-4 Visual
Format profile: Advanced Simple@L5
Format settings, BVOP: 1
Format settings, QPel: No
Format settings, GMC: No warppoints
Format settings, Matrix: Custom
Codec ID: XVID
Codec ID/Hint: XviD
Duration: 1 h 37 min
Bit rate: 934 kb/s
Width: 720 pixels
Height: 304 pixels
Display aspect ratio: 2.35:1
Frame rate: 23.976 (24000/1001) FPS
Color space: YUV
Chroma subsampling: 4:2:0
Bit depth: 8 bits
Scan type: Progressive
Compression mode: Lossy
Bits/(Pixel*Frame): 0.178
Stream size: 649 MiB (87%)
Writing library: XviD 73

Audio
ID: 1
Format: MPEG Audio
Format version: Version 1
Format profile: Layer 3
Codec ID: 55
Codec ID/Hint: MP3
Duration: 1 h 37 min
Bit rate mode: Constant
Bit rate: 128 kb/s
Channel(s): 2 channels
Sampling rate: 48.0 kHz
Compression mode: Lossy
Stream size: 89.0 MiB (12%)
Alignment: Aligned on interleaves
Interleave, duration: 42 ms (1.00 video frame)
Interleave, preload duratio: 504 ms
Writing library: LAME3.99r
Encoding settings: -m s -V 4 -q 2 -lowpass 17 -b 1
Ссылка Полной грудью / Breathe In (HDRip) скачать торрент Драма - Торрент-Трекер находится под похожими раздачами Download Torrent
Полной грудью / Breathe In (HDRip) скачать торрент Драма - Торрент-Трекер
Скриншоты Полной грудью / Breathe In

скачать торрент, Игры на PC, Download Torrent, мультфильм, фильм, hdrip, Драма
Добавил: SxS | Просмотров: 28 | Рейтинг: 0.0/0
Добавлять комментарии могут только зарегистрированные пользователи.
[ Регистрация | Вход ]
Ужасы [101]
Horrors
Фантастика [87]
Fantastic
Боевик [101]
Action
Триллер [104]
Thriller
Криминал [3]
Crime
Военный [2]
Military
Вестерн [11]
Western
Документальный [6]
Documentary
Биография [4]
Biography
Драма [264]
Drama
Мелодрама [24]
Melodrama
Комедия [77]
Comedy
Мюзикл [7]
Musical
Приключения [13]
Adventure
Пародия [6]
Parody
Мультфильмы [23]
Cartoons
Мультсериал [1]
Animated series
Аниме [2]
Anime
Форма входа
Поиск
Лучшие раздачи