Приветствую Вас Гость

Total War: ARENA
Торрент-Трекер » HDRip » Драма

Пляжные крысы / Beach Rats (HDRip) скачать торрент

[ Раздача закрыта по требованию правообладателя ]



Пляжные крысы / Beach Rats (HDRip) скачать торрент Драма - Торрент-Трекер

Информация о фильме
Название:Пляжные Крысы
Оригинальное название:Beach Rats
Год выхода:2017
Жанр:драма
Режиссер:Элайза Хиттман
В ролях:Харрис Дикинсон, Мадлен Вайнштейн, Кейт Ходж, Нил Хафф, Николь Флайс, Дэвид Иванов, Антон Сельянинов

О фильме:События фильма разворачиваются на окраинах Бруклина. Подросток Фрэнки сбегает к своим друзьям от гнетущей атмосферы, царящей в его семье. Пытаясь разобраться в своей сексуальной идентичности, Фрэнки начинает встречаться с мужчинами постарше. Одновременно с этим он вступает в отношения с молодой девушкой. Фрэнки изучает себя и свои желания, чтобы понять, к чему его влечёт больше. Однако этот путь познания может привести к непоправимым последствиям...

Страна:США
Студия:Animal Kingdom, Cinereach, Secret Engine
Продолжительность:01:38:14
Перевод:Любительский (двухголосый, закадровый) [RecentFilms]
Субтитры:Нет

ПРИСУТСТВУЕТ НЕНОРМАТИВНАЯ ЛЕКСИКА!

Файл
Кодек:XviD
Качество:HDRip
Видео:688x384 (1.79:1), 23.976 fps, XviD build 73 ~857 kbps avg, 0.14 bit/pixel
Звук:48 kHz, MPEG Layer 3, 2 ch, ~128.00 kbps avg

MediaInfo
General
Complete name : Beach.Rats.2017.HDRip.ot.Portablius.avi
Format : AVI
Format/Info : Audio Video Interleave
File size : 699 MiB
Duration : 1 h 38 min
Overall bit rate : 995 kb/s
Writing application : VirtualDubMod 1.5.10.3 | www.virtualdub-fr.org || (build 2550/release)
Writing library : VirtualDubMod build 2550/release

Video
ID : 0
Format : MPEG-4 Visual
Format profile : Advanced Simple@L5
Format settings, BVOP : 1
Format settings, QPel : No
Format settings, GMC : No warppoints
Format settings, Matrix : Custom
Codec ID : XVID
Codec ID/Hint : XviD
Duration : 1 h 38 min
Bit rate : 857 kb/s
Width : 688 pixels
Height : 384 pixels
Display aspect ratio : 16:9
Frame rate : 23.976 (24000/1001) FPS
Original frame rate : 23.976 (23976/1000) FPS
Color space : YUV
Chroma subsampling : 4:2:0
Bit depth : 8 bits
Scan type : Progressive
Compression mode : Lossy
Bits/(Pixel*Frame) : 0.135
Stream size : 602 MiB (86%)
Writing library : XviD 73

Audio
ID : 1
Format : MPEG Audio
Format version : Version 1
Format profile : Layer 3
Codec ID : 55
Codec ID/Hint : MP3
Duration : 1 h 38 min
Bit rate mode : Constant
Bit rate : 128 kb/s
Channel(s) : 2 channels
Sampling rate : 48.0 kHz
Compression mode : Lossy
Stream size : 89.9 MiB (13%)
Alignment : Aligned on interleaves
Interleave, duration : 42 ms (1.00 video frame)
Interleave, preload duratio : 504 ms
Writing library : LAME3.99r
Encoding settings : -m s -V 4 -q 2 -lowpass 17 -b 128


ЗалилEvgen Portable
Ссылка Пляжные крысы / Beach Rats (HDRip) скачать торрент Драма - Торрент-Трекер находится под похожими раздачами Download Torrent
Пляжные крысы / Beach Rats (HDRip) скачать торрент Драма - Торрент-Трекер
Скриншоты Пляжные крысы / Beach Rats

скачать торрент, Игры на PC, Download Torrent, мультфильм, фильм, hdrip, Драма
Добавил: SxS | Просмотров: 16 | Загрузок: 2 | Рейтинг: 0.0/0
Добавлять комментарии могут только зарегистрированные пользователи.
[ Регистрация | Вход ]
Ужасы [56]
Horrors
Фантастика [58]
Fantastic
Боевик [66]
Action
Триллер [54]
Thriller
Криминал [2]
Crime
Военный [2]
Military
Вестерн [7]
Western
Документальный [6]
Documentary
Биография [2]
Biography
Драма [188]
Drama
Мелодрама [12]
Melodrama
Комедия [50]
Comedy
Мюзикл [3]
Musical
Приключения [5]
Adventure
Пародия [3]
Parody
Мультфильмы [13]
Cartoons
Мультсериал [1]
Animated series
Аниме [2]
Anime
Форма входа
Поиск
Лучшие раздачи