Приветствую Вас Гость

World of Warships [SOI] RU+CIS
Торрент-Трекер » HDRip » Драма

От имени моей дочери / Kalinka / Au nom de ma fille (HDRip) скачать торрент

[ ]



От имени моей дочери / Kalinka / Au nom de ma fille (HDRip) скачать торрент Драма - Торрент-Трекер

Информация о фильме
Название: От имени моей дочери
Оригинальное название: Kalinka / Au nom de ma fille
Год выхода: 2016
Жанр: драма, биография
Режиссер: Венсан Гаренк
В ролях: Даниель Отой, Себастьян Кох, Мари-Жозе Кроз, Кристель Корнил, Лила-Роуз Джилберти, Emma Besson, Кристиан Кмиотек (Robert), Серж Феллар (Maitre Gibault), Фред Персонн, Тереза Руссель (La mere d'Andre), Tom Hudson (Pierre (20 ans)), Антуан Милход

О фильме: Андрэ Бамберски стремится выяснить истинные причины гибели своей маленькой дочери Калинки. Расследование, длившееся 27 лет, выходит на след предполагаемого насильника и убийцы, и отец наконец получает возможность способствовать свершению правосудия.

Страна: Франция, Германия
Студия: LGM Productions, Black Mask Productions, StudioCanal, TF1 Films Production
Продолжительность: 01:26:22
Перевод: Профессиональный (многоголосый, закадровый) кинокомпания Эй Би Видео по заказу Первого канала
Субтитры: Нет

Файл
Кодек: XviD
Качество: HDRip
Видео: 720x304 (2.37:1), 24.000 fps, XviD build 73 ~1057 kbps avg, 0.20 bit/pixel
Звук: 48 kHz, MPEG Layer 3, 2 ch, ~128.00 kbps avg

MediaInfo
General
Complete name: Au.nom.de.ma.fille.2016.HDRip.ot.Portablius.avi
Format: AVI
Format/Info: Audio Video Interleave
File size: 738 MiB
Duration: 1 h 26 min
Overall bit rate: 1 195 kb/s
Writing application: VirtualDubMod 1.5.10.3 | www.virtualdub-fr.org || (build 2550/release)
Writing library: VirtualDubMod build 2550/release

Video
ID: 0
Format: MPEG-4 Visual
Format profile: Advanced Simple@L5
Format settings, BVOP: 1
Format settings, QPel: No
Format settings, GMC: No warppoints
Format settings, Matrix: Custom
Codec ID: XVID
Codec ID/Hint: XviD
Duration: 1 h 26 min
Bit rate: 1 058 kb/s
Width: 720 pixels
Height: 304 pixels
Display aspect ratio: 2.35:1
Frame rate: 24.000 FPS
Color space: YUV
Chroma subsampling: 4:2:0
Bit depth: 8 bits
Scan type: Progressive
Compression mode: Lossy
Bits/(Pixel*Frame): 0.201
Stream size: 653 MiB (89%)
Writing library: XviD 73

Audio
ID: 1
Format: MPEG Audio
Format version: Version 1
Format profile: Layer 3
Codec ID: 55
Codec ID/Hint: MP3
Duration: 1 h 26 min
Bit rate mode: Constant
Bit rate: 128 kb/s
Channel(s): 2 channels
Sampling rate: 48.0 kHz
Compression mode: Lossy
Stream size: 79.1 MiB (11%)
Alignment: Aligned on interleaves
Interleave, duration: 42 ms (1.00 video frame)
Interleave, preload duratio: 504 ms
Writing library: LAME3.99r
Encoding settings: -m s -V 4 -q 2 -lowpass 17 -b 1
Ссылка От имени моей дочери / Kalinka / Au nom de ma fille (HDRip) скачать торрент Драма - Торрент-Трекер находится под похожими раздачами Download Torrent
От имени моей дочери / Kalinka / Au nom de ma fille (HDRip) скачать торрент Драма - Торрент-Трекер
Скриншоты От имени моей дочери / Kalinka / Au nom de ma fille

скачать торрент, Игры на PC, Download Torrent, мультфильм, фильм, hdrip, Драма
Добавил: SxS | Просмотров: 9 | Рейтинг: 0.0/0
Добавлять комментарии могут только зарегистрированные пользователи.
[ Регистрация | Вход ]
Ужасы [96]
Horrors
Фантастика [82]
Fantastic
Боевик [94]
Action
Триллер [100]
Thriller
Криминал [3]
Crime
Военный [2]
Military
Вестерн [11]
Western
Документальный [6]
Documentary
Биография [3]
Biography
Драма [244]
Drama
Мелодрама [23]
Melodrama
Комедия [71]
Comedy
Мюзикл [5]
Musical
Приключения [13]
Adventure
Пародия [6]
Parody
Мультфильмы [22]
Cartoons
Мультсериал [1]
Animated series
Аниме [2]
Anime
Форма входа
Поиск
Лучшие раздачи