Приветствую Вас Гость

Total War: ARENA
Торрент-Трекер » HDRip » Драма

Лоурайдеры / Lowriders (HDRip) скачать торрент

[ Раздача закрыта по требованию правообладателя ]



Лоурайдеры / Lowriders (HDRip) скачать торрент Драма - Торрент-Трекер

Информация о фильме
Название:Лоурайдеры
Оригинальное название:Lowriders
Год выхода:2016
Жанр:Драма, криминал, приключения
Режиссер:Рикардо де Монреиль
В ролях:Мелисса Бенойст, Ева Лонгория, Тео Росси, Демиан Бишир, Кресс Уильямс, Тони Револори, Монце Эрнандез, Пэнди Суисайд, Гэбриел Чаварриа, Ивет Монреаль

О фильме:История об уличном художнике-подростке, который разрывается между строгим отцом и преступным братом, когда они сталкиваются на ежегодном автомобильном шоу-состязании лоурайдеров.

Страна:США
Студия:Blumhouse Productions, Imagine Entertainment, Universal Pictures
Продолжительность:01:38:10
Перевод:Профессиональный, многоголосый, закадровый ~ SDI Media

Файл
Кодек:AVI [XviD]
Качество:HDRip
Видео:720x304, 1468kb/s, 23.976fps
Звук:
1] 192kb/s, 2ch, 48000kHz, AC3 [RUS] | SDI Media
2] 448kb/s, 6ch, 48000kHz, AC3 [ENG] | Английский оригинал
Субтитры:Отсутствуют

РЕКЛАМА ОТСУТСТВУЕТ

MI Формат : AVI
Формат/Информация : Audio Video Interleave
Размер файла : 1,46 Гбайт
Продолжительность : 1 ч. 38 м.
Общий поток : 2122 Кбит/сек
Название фильма : Лоурайдеры / Lowriders (2016)
Программа кодирования : VirtualDubMod 1.5.10.2 (build 2540/release)
Библиотека кодирования : VirtualDubMod build 2540/release
Авторское право : miha2154

Видео
Идентификатор : 0
Формат : MPEG-4 Visual
Профиль формата : Advanced Simple@L5
Настройки формата : BVOP1 / Custom Matrix
Параметр BVOP формата : 1
Параметр QPel формата : Нет
Параметр GMC формата : Без точки перехода
Параметр матрицы формата : Выборочная
Идентификатор кодека : XVID
Идентификатор кодека/Подсказка : XviD
Продолжительность : 1 ч. 38 м.
Битрейт : 1468 Кбит/сек
Ширина : 720 пикселей
Высота : 304 пикселя
Соотношение сторон : 2,35:1
Частота кадров : 23,976 (24000/1001) кадра/сек
Цветовое пространство : YUV
Субдискретизация насыщенности : 4:2:0
Битовая глубина : 8 бит
Тип развёртки : Прогрессивная
Метод сжатия : С потерями
Бит/(Пиксели*Кадры) : 0.280
Размер потока : 1,01 Гбайт (69%)
Библиотека кодирования : XviD 65

Аудио #1
Идентификатор : 1
Формат : AC-3
Формат/Информация : Audio Coding 3
Идентификатор кодека : 2000
Продолжительность : 1 ч. 38 м.
Вид битрейта : Постоянный
Битрейт : 192 Кбит/сек
Каналы : 2 канала
Расположение каналов : Front: L R
Частота : 48,0 КГц
Частота кадров : 31,250 кадров/сек (1536 SPF)
Битовая глубина : 16 бит
Метод сжатия : С потерями
Размер потока : 135 Мбайт (9%)
Выравнивание : Разделение по промежуткам
Продолжительность промежутка : 42 мс. (1,00 видеокадр)
Время предзагрузки промежутка : 500 мс.
Заголовок : Профессиональный (многоголосый, закадровый) ViP Premiere HD

Аудио #2
Идентификатор : 2
Формат : AC-3
Формат/Информация : Audio Coding 3
Идентификатор кодека : 2000
Продолжительность : 1 ч. 38 м.
Вид битрейта : Постоянный
Битрейт : 448 Кбит/сек
Каналы : 6 каналов
Расположение каналов : Front: L C R, Side: L R, LFE
Частота : 48,0 КГц
Частота кадров : 31,250 кадров/сек (1536 SPF)
Битовая глубина : 16 бит
Метод сжатия : С потерями
Размер потока : 315 Мбайт (21%)
Выравнивание : Разделение по промежуткам
Продолжительность промежутка : 42 мс. (1,00 видеокадр)
Время предзагрузки промежутка : 500 мс.
Заголовок : Английский

Залилdeadconnelly83
Ссылка Лоурайдеры / Lowriders (HDRip) скачать торрент Драма - Торрент-Трекер находится под похожими раздачами Download Torrent
Лоурайдеры / Lowriders (HDRip) скачать торрент Драма - Торрент-Трекер
Скриншоты Лоурайдеры / Lowriders

скачать торрент, Игры на PC, Download Torrent, мультфильм, фильм, hdrip, Драма
Добавил: SxS | Просмотров: 18 | Рейтинг: 0.0/0
Добавлять комментарии могут только зарегистрированные пользователи.
[ Регистрация | Вход ]
Ужасы [56]
Horrors
Фантастика [58]
Fantastic
Боевик [66]
Action
Триллер [53]
Thriller
Криминал [2]
Crime
Военный [2]
Military
Вестерн [7]
Western
Документальный [6]
Documentary
Биография [2]
Biography
Драма [188]
Drama
Мелодрама [12]
Melodrama
Комедия [49]
Comedy
Мюзикл [3]
Musical
Приключения [5]
Adventure
Пародия [3]
Parody
Мультфильмы [13]
Cartoons
Мультсериал [1]
Animated series
Аниме [2]
Anime
Форма входа
Поиск
Лучшие раздачи