Приветствую Вас Гость

Total War: ARENA
Торрент-Трекер » HDRip » Драма

Любовь за стеной / Liebe Mauer (HDRip) скачать торрент

[ Раздача закрыта по требованию правообладателя ]



Любовь за стеной / Liebe Mauer (HDRip) скачать торрент Драма - Торрент-Трекер

Информация о фильме
Название:Любовь за стеной
Оригинальное название:Liebe Mauer
Год выхода:2009
Жанр:драма, мелодрама, комедия
Режиссер:Питер Тимм
В ролях:Фелиситас Волль, Максим Мехмет, Анна Фишер, Томас Тиме, Карл Кранцковски, Маргарита Бройх, Гизела Троув, Катя Дановски, Вальдемар Кобус, Uwe Steimle...

О фильме:Берлин, 1989 год. Саша — молодой восточный немец, который трудится на охране границы. Франци — молодая западная немка, которая недавно поселилась в квартире с видом на пост Саши у Берлинской стены. Случайность дала им возможность познакомиться и влюбиться друг в друга. Но скоро начинаются массовые волнения в ГДР и тайная полиция решает, что пора начать действовать против всех недовольных.

Страна:Германия
Продолжительность:01:46:54
Перевод:Профессиональный (многоголосый, закадровый)
Субтитры:Нет

Файл
Кодек:XviD
Качество:HDRip
Видео:592x320 (1.85:1), 23.976 fps, XviD build 73 ~777 kbps avg, 0.17 bit/pixel
Звук:48 kHz, MPEG Layer 3, 2 ch, ~128.00 kbps avg

MediaInfo
General
Complete name : Liebe.Mauer.2009.HDRip.ot.Portablius.avi
Format : AVI
Format/Info : Audio Video Interleave
File size : 700 MiB
Duration : 1 h 46 min
Overall bit rate : 915 kb/s
Writing application : VirtualDubMod 1.5.10.3 | www.virtualdub-fr.org || (build 2550/release)
Writing library : VirtualDubMod build 2550/release

Video
ID : 0
Format : MPEG-4 Visual
Format profile : Advanced Simple@L5
Format settings, BVOP : 1
Format settings, QPel : No
Format settings, GMC : No warppoints
Format settings, Matrix : Custom
Codec ID : XVID
Codec ID/Hint : XviD
Duration : 1 h 46 min
Bit rate : 778 kb/s
Width : 592 pixels
Height : 320 pixels
Display aspect ratio : 1.85:1
Frame rate : 23.976 (24000/1001) FPS
Original frame rate : 23.976 (23976/1000) FPS
Color space : YUV
Chroma subsampling : 4:2:0
Bit depth : 8 bits
Scan type : Progressive
Compression mode : Lossy
Bits/(Pixel*Frame) : 0.171
Stream size : 595 MiB (85%)
Writing library : XviD 73

Audio
ID : 1
Format : MPEG Audio
Format version : Version 1
Format profile : Layer 3
Codec ID : 55
Codec ID/Hint : MP3
Duration : 1 h 46 min
Bit rate mode : Constant
Bit rate : 128 kb/s
Channel(s) : 2 channels
Sampling rate : 48.0 kHz
Compression mode : Lossy
Stream size : 97.9 MiB (14%)
Alignment : Aligned on interleaves
Interleave, duration : 42 ms (1.00 video frame)
Interleave, preload duratio : 504 ms
Writing library : LAME3.99r
Encoding settings : -m s -V 4 -q 2 -lowpass 17 -b 128


ЗалилEvgen Portable
Ссылка Любовь за стеной / Liebe Mauer (HDRip) скачать торрент Драма - Торрент-Трекер находится под похожими раздачами Download Torrent
Любовь за стеной / Liebe Mauer (HDRip) скачать торрент Драма - Торрент-Трекер
Скриншоты Любовь за стеной / Liebe Mauer

скачать торрент, Игры на PC, Download Torrent, мультфильм, фильм, hdrip, Драма
Добавил: SxS | Просмотров: 11 | Загрузок: 1 | Рейтинг: 0.0/0
Добавлять комментарии могут только зарегистрированные пользователи.
[ Регистрация | Вход ]
Ужасы [56]
Horrors
Фантастика [58]
Fantastic
Боевик [66]
Action
Триллер [54]
Thriller
Криминал [2]
Crime
Военный [2]
Military
Вестерн [7]
Western
Документальный [6]
Documentary
Биография [2]
Biography
Драма [188]
Drama
Мелодрама [12]
Melodrama
Комедия [50]
Comedy
Мюзикл [3]
Musical
Приключения [5]
Adventure
Пародия [3]
Parody
Мультфильмы [13]
Cartoons
Мультсериал [1]
Animated series
Аниме [2]
Anime
Форма входа
Поиск
Лучшие раздачи