Приветствую Вас Гость

Total War: ARENA
Торрент-Трекер » HDRip » Драма

Когда вяжут серьёзно / Karera ga honki de amu toki wa (HDRip) скачать торрент

[ Раздача закрыта по требованию правообладателя ]



Когда вяжут серьёзно / Karera ga honki de amu toki wa (HDRip) скачать торрент Драма - Торрент-Трекер

Информация о фильме
Год выхода: 2017
Наименование: Когда вяжут серьёзно
Оригинальное наименование: Karera ga honki de amu toki wa
Произведено: Япония
Жанр:драма
Режиссер постановщик: Наоко Огигами
В главных ролях: Тома Икута, Эико Коикэ, Норико Эгути, Муги Кадоваки, Кэнта Киритани, Рин Какихара, Рири, Мисако Танака, Мимура, Сюдзи Касивабара

О фильме: Одиннадцатилетняя Томо живет со своей мамой Хироми, но та бросает Томо и уходит из дома. Томо, оставшись совсем одна, приезжает к дяде Макио. У Макио есть красавица-девушка Ринко, она родилась мужчиной и сейчас работает в доме престарелых. Томо удивлена и сбита с толку, ведь Ринко относится к ней более ласково и тепло, чем её родная мать.

Файл
Качество: HDRip
Видео данные: AVI (XviD), 720x400 (16:9), 23.976 fps, 1336 Кбит/с
Аудио данные: AAC, 2 ch, 125 Кбит/с
Перевод: Любительский многоголосый (GreenРай Studio)
Продолжительность: 02:08:14

Медиаинфо
General
Complete name : D:ГРИНРАЙKarera.ga.honki.de.amu.toki.wa.2017.P.HDRip.avi
Format : AVI
Format/Info : Audio Video Interleave
Format profile : OpenDML
File size : 1.32 GiB
Duration : 2 h 8 min
Overall bit rate : 1 478 kb/s
Writing application : Lavf57.83.100

Video
ID : 0
Format : xvid
Codec ID : xvid
Duration : 2 h 8 min
Bit rate : 1 336 kb/s
Width : 720 pixels
Height : 400 pixels
Display aspect ratio : 16:9
Frame rate : 23.976 (24000/1001) FPS
Scan type : Progressive
Bits/(Pixel*Frame) : 0.194
Stream size : 1.20 GiB (90%)

Audio
ID : 1
Format : AAC
Format/Info : Advanced Audio Codec
Format profile : LC
Codec ID : FF-2
Duration : 2 h 8 min
Bit rate : 125 kb/s
Channel(s) : 2 channels
Channel positions : Front: L R
Sampling rate : 48.0 kHz
Frame rate : 46.875 FPS (1024 SPF)
Compression mode : Lossy
Stream size : 115 MiB (8%)
Alignment : Split accross interleaves
Interleave, duration : 21 ms (0.51 video frame)
Внимание, имеется видео и аудио реклама от спонсора показа



Релиз от: ЗалилGreenRayRelS
Ссылка Когда вяжут серьёзно / Karera ga honki de amu toki wa (HDRip) скачать торрент Драма - Торрент-Трекер находится под похожими раздачами Download Torrent
Когда вяжут серьёзно / Karera ga honki de amu toki wa (HDRip) скачать торрент Драма - Торрент-Трекер
Скриншоты Когда вяжут серьёзно / Karera ga honki de amu toki wa

скачать торрент, Игры на PC, Download Torrent, мультфильм, фильм, hdrip, Драма
Добавил: SxS | Просмотров: 19 | Загрузок: 5 | Рейтинг: 5.0/1
Добавлять комментарии могут только зарегистрированные пользователи.
[ Регистрация | Вход ]
Ужасы [56]
Horrors
Фантастика [58]
Fantastic
Боевик [66]
Action
Триллер [54]
Thriller
Криминал [2]
Crime
Военный [2]
Military
Вестерн [7]
Western
Документальный [6]
Documentary
Биография [2]
Biography
Драма [188]
Drama
Мелодрама [12]
Melodrama
Комедия [50]
Comedy
Мюзикл [3]
Musical
Приключения [5]
Adventure
Пародия [3]
Parody
Мультфильмы [13]
Cartoons
Мультсериал [1]
Animated series
Аниме [2]
Anime
Форма входа
Поиск
Лучшие раздачи