Приветствую Вас Гость

World of Warships [SOI] RU+CIS
Торрент-Трекер » HDRip » Драма

Кочевник / Nomad (HDRip) скачать торрент

[ ]



Кочевник / Nomad (HDRip) скачать торрент Драма - Торрент-Трекер

Информация о фильме
Название: Кочевник
Оригинальное название: The Warrior / Nomad
Год выхода: 2005
Жанр: драма, военный, история
Режиссеры: Сергей Бодров, Иван Пассер, Талгат Теменов
В ролях: Куно Беккер, Джей Эрнандес, Джейсон Скотт Ли, Досхан Жолжаксынов, Аянат Есмагамбетова, Марк Дакаскос, Ашир Чокубаев, Жанас Искаков, Тунгышбай Жаманкулов

О фильме: История о казахском народе, о становлении государственного самосознания казахов еще в ХVIII веке. В основу фильма «Кочевник» легли реальные исторические события, происходившие на казахской земле в 18 веке — освободительная война казахов против джунгарских завоевателей. Героями фильма являются реальные исторические личности: хан Абулхаир, Аблай-хан, мудрый Толе би, предводитель джунгар Голдан Церен. Центральная фигура фильма — герой Мансур, ставший Аблай ханом, проходит все испытания подлинного народного полководца, но при этом не теряет притягательных личных черт, благодаря удачно выписанной лирической линии его любви к девушке — воину Гаухар.

Страна: Казахстан, Россия, США
Студия: Студия Казахфильм, Ибрус, Wild Bunch, True Story Production
Продолжительность: 01:51:23
Перевод: Профессиональный (полное дублирование) | R5
Субтитры: Нет

Файл
Кодек: XviD
Качество: HDRip
Видео: 688x288 (2.39:1), 23.976 fps, XviD build 73 ~798 kbps avg, 0.17 bit/pixel
Звук: 48 kHz, MPEG Layer 3, 2 ch, ~128.00 kbps avg

MediaInfo
General
Complete name: Nomad.2005.HDRip.ot.Portablius.avi
Format: AVI
Format/Info: Audio Video Interleave
File size: 746 MiB
Duration: 1 h 51 min
Overall bit rate: 936 kb/s
Writing application: VirtualDubMod 1.5.10.3 | www.virtualdub-fr.org || (build 2550/release)
Writing library: VirtualDubMod build 2550/release

Video
ID: 0
Format: MPEG-4 Visual
Format profile: Advanced Simple@L5
Format settings, BVOP: 1
Format settings, QPel: No
Format settings, GMC: No warppoints
Format settings, Matrix: Custom
Codec ID: XVID
Codec ID/Hint: XviD
Duration: 1 h 51 min
Bit rate: 799 kb/s
Width: 688 pixels
Height: 288 pixels
Display aspect ratio: 2.40:1
Frame rate: 23.976 (24000/1001) FPS
Color space: YUV
Chroma subsampling: 4:2:0
Bit depth: 8 bits
Scan type: Progressive
Compression mode: Lossy
Bits/(Pixel*Frame): 0.168
Stream size: 636 MiB (85%)
Writing library: XviD 73

Audio
ID: 1
Format: MPEG Audio
Format version: Version 1
Format profile: Layer 3
Mode: Joint stereo
Mode extension: MS Stereo
Codec ID: 55
Codec ID/Hint: MP3
Duration: 1 h 51 min
Bit rate mode: Constant
Bit rate: 128 kb/s
Channel(s): 2 channels
Sampling rate: 48.0 kHz
Compression mode: Lossy
Stream size: 102 MiB (14%)
Alignment: Aligned on interleaves
Interleave, duration: 42 ms (1.00 video frame)
Interleave, preload duratio: 504 ms
Writing library: LAME3.99
Ссылка Кочевник / Nomad (HDRip) скачать торрент Драма - Торрент-Трекер находится под похожими раздачами Download Torrent
Кочевник / Nomad (HDRip) скачать торрент Драма - Торрент-Трекер
Скриншоты Кочевник / Nomad

скачать торрент, Игры на PC, Download Torrent, мультфильм, фильм, hdrip, Драма
Добавил: SxS | Просмотров: 62 | Рейтинг: 0.0/0
Добавлять комментарии могут только зарегистрированные пользователи.
[ Регистрация | Вход ]
Ужасы [101]
Horrors
Фантастика [86]
Fantastic
Боевик [101]
Action
Триллер [104]
Thriller
Криминал [3]
Crime
Военный [2]
Military
Вестерн [11]
Western
Документальный [6]
Documentary
Биография [4]
Biography
Драма [264]
Drama
Мелодрама [24]
Melodrama
Комедия [77]
Comedy
Мюзикл [7]
Musical
Приключения [13]
Adventure
Пародия [6]
Parody
Мультфильмы [23]
Cartoons
Мультсериал [1]
Animated series
Аниме [2]
Anime
Форма входа
Поиск
Лучшие раздачи