Приветствую Вас Гость

World of Warships [SOI] RU+CIS
Торрент-Трекер » HDRip » Драма

И проиграли бой / In Dubious Battle (HDRip) скачать торрент

[ ]



И проиграли бой / In Dubious Battle (HDRip) скачать торрент Драма - Торрент-Трекер

Информация о фильме
Название: И проиграли бой
Оригинальное название: In Dubious Battle
Год выхода: 2016
Жанр: Драма
Режиссер: Джеймс Франко
В ролях: Джеймс Франко, Брайан Крэнстон, Роберт Дювалл, Эд Харрис, Селена Гомес, Нат Вулф, Винсент Д`Онофрио, Ана О’Райли, Анали Типтон, Джек Келер

О фильме: 1930 год. Решающий момент в истории США — рабочие по всей стране начинают создавать профсоюзы для защиты своих прав, пытаются бороться за лучшее обращение и достойную заработную плату. В Калифорнийской долине между мигрантами-сборщиками яблок и членами ассоциации местных овощеводов возникает трудовой конфликт. Активист «Партии» Джим Нолан, понимая важность организованного труда, начинает участвовать в рабочем движении и организовывает крупную забастовку с участием около 900 сборщиков яблок, чтобы привлечь больше людей к своему делу.

Страна: США
Студия: Ambi Pictures, RabbitBandini Productions
Продолжительность: 01:53:37
Перевод: Дубляж [официальный звук]
Субтитры: Нет

Файл
Кодек: XviD
Качество: HDRip
Видео: 688x288 (2.39:1), 23.976 fps, XviD build 73 ~780 kbps avg, 0.16 bit/pixel
Звук: 48 kHz, MPEG Layer 3, 2 ch, ~128.00 kbps avg

MediaInfo
General
Complete name: In.Dubious.Battle.2016.HDRip.ot.Portablius.avi
Format: AVI
Format/Info: Audio Video Interleave
File size: 746 MiB
Duration: 1 h 53 min
Overall bit rate: 918 kb/s
Writing application: VirtualDubMod 1.5.10.3 | www.virtualdub-fr.org || (build 2550/release)
Writing library: VirtualDubMod build 2550/release

Video
ID: 0
Format: MPEG-4 Visual
Format profile: Advanced Simple@L5
Format settings, BVOP: 1
Format settings, QPel: No
Format settings, GMC: No warppoints
Format settings, Matrix: Custom
Codec ID: XVID
Codec ID/Hint: XviD
Duration: 1 h 53 min
Bit rate: 781 kb/s
Width: 688 pixels
Height: 288 pixels
Display aspect ratio: 2.40:1
Frame rate: 23.976 (24000/1001) FPS
Color space: YUV
Chroma subsampling: 4:2:0
Bit depth: 8 bits
Scan type: Progressive
Compression mode: Lossy
Bits/(Pixel*Frame): 0.164
Stream size: 634 MiB (85%)
Writing library: XviD 73

Audio
ID: 1
Format: MPEG Audio
Format version: Version 1
Format profile: Layer 3
Codec ID: 55
Codec ID/Hint: MP3
Duration: 1 h 53 min
Bit rate mode: Constant
Bit rate: 128 kb/s
Channel(s): 2 channels
Sampling rate: 48.0 kHz
Compression mode: Lossy
Stream size: 104 MiB (14%)
Alignment: Aligned on interleaves
Interleave, duration: 42 ms (1.00 video frame)
Interleave, preload duratio: 504 ms
Writing library: LAME3.99r
Encoding settings: -m s -V 4 -q 2 -lowpass 17 -b 1
Ссылка И проиграли бой / In Dubious Battle (HDRip) скачать торрент Драма - Торрент-Трекер находится под похожими раздачами Download Torrent
И проиграли бой / In Dubious Battle (HDRip) скачать торрент Драма - Торрент-Трекер
Скриншоты И проиграли бой / In Dubious Battle

скачать торрент, Игры на PC, Download Torrent, мультфильм, фильм, hdrip, Драма
Добавил: SxS | Просмотров: 43 | Загрузок: 1 | Рейтинг: 0.0/0
Добавлять комментарии могут только зарегистрированные пользователи.
[ Регистрация | Вход ]
Ужасы [101]
Horrors
Фантастика [86]
Fantastic
Боевик [101]
Action
Триллер [104]
Thriller
Криминал [3]
Crime
Военный [2]
Military
Вестерн [11]
Western
Документальный [6]
Documentary
Биография [4]
Biography
Драма [264]
Drama
Мелодрама [24]
Melodrama
Комедия [77]
Comedy
Мюзикл [7]
Musical
Приключения [13]
Adventure
Пародия [6]
Parody
Мультфильмы [23]
Cartoons
Мультсериал [1]
Animated series
Аниме [2]
Anime
Форма входа
Поиск
Лучшие раздачи