Приветствую Вас Гость

World of Warships [SOI] RU+CIS
Торрент-Трекер » HDRip » Драма

Город-бомба / Bomb City (HDRip) скачать торрент

[ ]



Город-бомба / Bomb City (HDRip) скачать торрент Драма - Торрент-Трекер

Информация о фильме
Название: Город-бомба
Оригинальное название: Bomb City
Год выхода: 2017
Жанр: драма, криминал
Режиссер: Джэми Брукс
В ролях: Дэйв Дэвис, Гленн Моршауэр, Логан Хаффман, Лорелей Линклейтер, Эдди Хэсселл, Henry Knotts, Доминик Райан Гэбриел, Люк Шелтон, Мэймэй Ренфроу, Майкл Сэйтц

О фильме: О культурной неприязни к группе панков в консервативном Техасе. Чем дальше заходит их борьба с ненавистью, тем больше она напоминает парад насилия и жестокости, ставя под вопрос моральные устои, на которых держится американское правосудие.

Страна: США
Студия: 3rd Identity Films, Bomb City Film
Продолжительность: 01:38:29
Перевод: Авторский (одноголосый, закадровый) М.Яроцкий
Субтитры: Нет

ПРИСУТСТВУЕТ НЕНОРМАТИВНАЯ ЛЕКСИКА!

Файл
Кодек: XviD
Качество: HDRip
Видео: 720x304 (2.37:1), 23.976 fps, XviD build 73 ~920 kbps avg, 0.17 bit/pixel
Звук: 48 kHz, MPEG Layer 3, 2 ch, ~128.00 kbps avg

MediaInfo
General
Complete name: Bomb.City.2017.HDRip.ot.Portablius.avi
Format: AVI
Format/Info: Audio Video Interleave
File size: 745 MiB
Duration: 1 h 38 min
Overall bit rate: 1 058 kb/s
Writing application: VirtualDubMod 1.5.10.3 | www.virtualdub-fr.org || (build 2550/release)
Writing library: VirtualDubMod build 2550/release

Video
ID: 0
Format: MPEG-4 Visual
Format profile: Advanced Simple@L5
Format settings, BVOP: 1
Format settings, QPel: No
Format settings, GMC: No warppoints
Format settings, Matrix: Custom
Codec ID: XVID
Codec ID/Hint: XviD
Duration: 1 h 38 min
Bit rate: 921 kb/s
Width: 720 pixels
Height: 304 pixels
Display aspect ratio: 2.35:1
Frame rate: 23.976 (24000/1001) FPS
Color space: YUV
Chroma subsampling: 4:2:0
Bit depth: 8 bits
Scan type: Progressive
Compression mode: Lossy
Bits/(Pixel*Frame): 0.175
Stream size: 649 MiB (87%)
Writing library: XviD 73

Audio
ID: 1
Format: MPEG Audio
Format version: Version 1
Format profile: Layer 3
Codec ID: 55
Codec ID/Hint: MP3
Duration: 1 h 38 min
Bit rate mode: Constant
Bit rate: 128 kb/s
Channel(s): 2 channels
Sampling rate: 48.0 kHz
Compression mode: Lossy
Stream size: 90.2 MiB (12%)
Alignment: Aligned on interleaves
Interleave, duration: 42 ms (1.00 video frame)
Interleave, preload duratio: 504 ms
Writing library: LAME3.99r
Encoding settings: -m s -V 4 -q 2 -lowpass 17 -b 1
Ссылка Город-бомба / Bomb City (HDRip) скачать торрент Драма - Торрент-Трекер находится под похожими раздачами Download Torrent
Город-бомба / Bomb City (HDRip) скачать торрент Драма - Торрент-Трекер
Скриншоты Город-бомба / Bomb City

скачать торрент, Игры на PC, Download Torrent, мультфильм, фильм, hdrip, Драма
Добавил: SxS | Просмотров: 64 | Рейтинг: 0.0/0
Добавлять комментарии могут только зарегистрированные пользователи.
[ Регистрация | Вход ]
Ужасы [96]
Horrors
Фантастика [82]
Fantastic
Боевик [94]
Action
Триллер [100]
Thriller
Криминал [3]
Crime
Военный [2]
Military
Вестерн [11]
Western
Документальный [6]
Documentary
Биография [3]
Biography
Драма [244]
Drama
Мелодрама [23]
Melodrama
Комедия [71]
Comedy
Мюзикл [5]
Musical
Приключения [13]
Adventure
Пародия [6]
Parody
Мультфильмы [22]
Cartoons
Мультсериал [1]
Animated series
Аниме [2]
Anime
Форма входа
Поиск
Лучшие раздачи