Приветствую Вас Гость

Total War: ARENA
Торрент-Трекер » HDRip » Комедия

Живая Мертвечина / Dead Alive / Braindead (HDRip) скачать торрент

[ Раздача закрыта по требованию правообладателя ]



Живая Мертвечина / Dead Alive / Braindead (HDRip) скачать торрент Комедия - Торрент-Трекер

Информация о фильме
Название: Живая Мертвечина
Оригинальное название: Dead Alive / Braindead
Год выхода: 1992
Жанр: комедия, ужасы
Режиссер: Питер Джексон
В ролях: Тимоти Балме, Диана Пеньялвер, Элизабет Муди, Иан Уоткин, Стюарт Девени, Бренда Кендл, Джед Брофи

О фильме: 1957 год. Застенчивый молодой человек Лайнел, полностью и во всем подчиняющейся самовлюбленной, доминантной матери, знакомится и влюбляется в очаровательную испанку Пакиту, работающую в местной продуктовой лавочке. Матери Лайнела это, естественно, не нравится и она следит за ними на свидании в зоопарке, где ее кусает 'обезьянокрыса' с острова Суматры, последний экземпляр, между прочим, тут же, в жестоких муках, погибающий от каблука мамаши. Дальнейшие события предугадать не сложно - заразившись от укуса неизвестным вирусом, мать Лайонела в муках умирает, съев предварительно собаку Пакиты, но только для того, чтобы превратиться в зомби, жаждущего плоти. Постепенно, стараниями мамочки, количество живых трупов в подвале у Лайнела увеличивается, а объем сопутствующих этому проблем растет буквально в геометрической прогрессии, что вскоре взрывается апофеозом кровавой резни...

Страна: Новая Зеландия
Продолжительность: 01:37:00
Перевод: Авторский (одноголосый, закадровый) (Гоблин)
Субтитры: Нет

Файл
Кодек: XviD
Качество: HDRip
Видео: 656x368 (1.78:1), 23.976 fps, XviD build 73 ~933 kbps avg, 0.16 bit/pixel
Звук: 44.100 kHz, MPEG Layer 3, 2 ch, ~128.00 kbps avg

MediaInfo
General
Complete name: Braindead.1992.HDRip.ot.Portablius.avi
Format: AVI
Format/Info: Audio Video Interleave
File size: 744 MiB
Duration: 1 h 37 min
Overall bit rate: 1 071 kb/s
Writing application: VirtualDubMod 1.5.10.3 | www.virtualdub-fr.org || (build 2550/release)
Writing library: VirtualDubMod build 2550/release

Video
ID: 0
Format: MPEG-4 Visual
Format profile: Advanced Simple@L5
Format settings, BVOP: 1
Format settings, QPel: No
Format settings, GMC: No warppoints
Format settings, Matrix: Custom
Codec ID: XVID
Codec ID/Hint: XviD
Duration: 1 h 37 min
Bit rate: 934 kb/s
Width: 656 pixels
Height: 368 pixels
Display aspect ratio: 16:9
Frame rate: 23.976 (24000/1001) FPS
Color space: YUV
Chroma subsampling: 4:2:0
Bit depth: 8 bits
Scan type: Progressive
Compression mode: Lossy
Bits/(Pixel*Frame): 0.161
Stream size: 649 MiB (87%)
Writing library: XviD 73

Audio
ID: 1
Format: MPEG Audio
Format version: Version 1
Format profile: Layer 3
Codec ID: 55
Codec ID/Hint: MP3
Duration: 1 h 37 min
Bit rate mode: Constant
Bit rate: 128 kb/s
Channel(s): 2 channels
Sampling rate: 44.1 kHz
Compression mode: Lossy
Stream size: 89.0 MiB (12%)
Alignment: Split accross interleaves
Interleave, duration: 42 ms (1.00 video frame)
Interleave, preload duratio: 500 ms
Writing library: LAME3.99r
Encoding settings: -m s -V 4 -q 0 -lowpass 17 -b 1
Ссылка Живая Мертвечина / Dead Alive / Braindead (HDRip) скачать торрент Комедия - Торрент-Трекер находится под похожими раздачами Download Torrent
Живая Мертвечина / Dead Alive / Braindead (HDRip) скачать торрент Комедия - Торрент-Трекер
Скриншоты Живая Мертвечина / Dead Alive / Braindead

скачать торрент, Игры на PC, Download Torrent, мультфильм, фильм, hdrip, Комедия
Добавил: SxS | Просмотров: 10 | Рейтинг: 0.0/0
Добавлять комментарии могут только зарегистрированные пользователи.
[ Регистрация | Вход ]
Ужасы [80]
Horrors
Фантастика [75]
Fantastic
Боевик [78]
Action
Триллер [76]
Thriller
Криминал [2]
Crime
Военный [2]
Military
Вестерн [9]
Western
Документальный [6]
Documentary
Биография [3]
Biography
Драма [228]
Drama
Мелодрама [20]
Melodrama
Комедия [66]
Comedy
Мюзикл [5]
Musical
Приключения [11]
Adventure
Пародия [5]
Parody
Мультфильмы [21]
Cartoons
Мультсериал [1]
Animated series
Аниме [2]
Anime
Форма входа
Поиск
Лучшие раздачи