Приветствую Вас Гость

World of Warships [SOI] RU+CIS
Торрент-Трекер » HDRip » Комедия

Весенние каникулы / Spring Break (HDRip) скачать торрент

[ ]



Весенние каникулы / Spring Break (HDRip) скачать торрент Комедия - Торрент-Трекер

Информация о фильме
Название: Весенние каникулы
Оригинальное название: Spring Break
Год выхода: 1983
Жанр: Комедия, мелодрама
Режиссер: Шон С. Каннингэм
В ролях: Дэвид Нелл, Перри Лэнг, Пол Лэнд, Стив Бассетт, Джейн Модин, Корина Уол, Ричард Б. Шалл, Джессика Джеймс, Даниэль Фаральдо, Дональд Симингтон, Джон Арчи, Роберт Смолл, Фред Бух

О фильме:
Парочка канадских студентов приезжает на весенние каникулы в жаркий Форт Лодердейл, чтобы оторваться по полной программе. Причём один из них делает это без ведома отчима, который собирался заставить парня вкалывать в его предвыборной компании в сенат. Традиционная молодёжная комедия с обилием девушек в бикини и без, заводной музыкой и непритязательным юмором. (Horror Maker)

Страна: США
Студия: Columbia Pictures Corporation, Fogbound Inc., Sean S. Cunningham Films
Продолжительность: 01:41:06
Перевод: Любительский одноголосый | Horror Maker

Файл
Кодек: XviD
Качество: HDRip
Видео: 720x400 (16:9), 23.976 fps, XviD MPEG-4, 1598 kbps avg
Звук #1: Русский | 48 kHz, AC3 Dolby Digital, 2.0 ch, 192 kbps
Звук #2: Английский | 48 kHz, AC3 Dolby Digital, 2.0 ch, 192 kbps
Субтитры: Русские (отдельно)

Инфо-файл
Формат: AVI
Формат/Информация: Audio Video Interleave
Размер файла: 1,41 Гбайт
Продолжительность: 1 ч. 41 м.
Общий поток: 1994 Кбит/сек
Название фильма: Spring.Break.1983.HDRip.by.zzZGVvv
Программа кодирования: VirtualDubMod 1.5.10.3 (build 2550/release)
Примечание: Spring.Break.1983.HDRip.by.zzZGVvv

Видео
Идентификатор: 0
Формат: MPEG-4 Visual
Профиль формата: Simple@L5
Параметр BVOP формата: Нет
Параметр QPel формата: Нет
Параметр GMC формата: Без точки перехода
Параметр матрицы формата: Default (H.263)
Идентификатор кодека: XVID
Идентификатор кодека/Подсказка: XviD
Продолжительность: 1 ч. 41 м.
Битрейт: 1598 Кбит/сек
Ширина: 720 пикселей
Высота: 400 пикселей
Соотношение сторон: 16:9
Частота кадров: 23,976 кадра/сек
Цветовое пространство: YUV
Субдискретизация насыщенности: 4:2:0
Битовая глубина: 8 бит
Тип развёртки: Прогрессивная
Метод сжатия: С потерями
Бит/(Пиксели*Кадры): 0.231
Размер потока: 1,13 Гбайт (80%)
Библиотека кодирования: Lavc57.107.100

Аудио #1
Идентификатор: 1
Формат: AC-3
Формат/Информация: Audio Coding 3
Расширение режима: CM (complete main)
Параметр Endianness формата: Big
Идентификатор кодека: 2000
Продолжительность: 1 ч. 39 м.
Вид битрейта: Постоянный
Битрейт: 192 Кбит/сек
Каналы: 2 канала
Расположение каналов: Front: L R
Частота: 48,0 КГц
Метод сжатия: С потерями
Размер потока: 137 Мбайт (9%)
Выравнивание: Соединение по промежуткам
Продолжительность промежутка: 42 мс. (1,02 видеокадр)
Время предзагрузки промежутка: 512 мс.

Аудио #2
Идентификатор: 2
Формат: AC-3
Формат/Информация: Audio Coding 3
Расширение режима: CM (complete main)
Параметр Endianness формата: Big
Идентификатор кодека: 2000
Продолжительность: 1 ч. 41 м.
Вид битрейта: Постоянный
Битрейт: 192 Кбит/сек
Каналы: 2 канала
Расположение каналов: Front: L R
Частота: 48,0 КГц
Метод сжатия: С потерями
Размер потока: 139 Мбайт (10%)
Выравнивание: Разделение по промежуткам
Продолжительность промежутка: 42 мс. (1,00 видеокадр)
Время предзагрузки промежутка: 500 мс.

Общее
Полное имя:
Формат: SubRip
Размер файла: 73,7 Кбайт

Текст
Формат: SubRip
Метод сжатия: Без потерь


Ссылка Весенние каникулы / Spring Break (HDRip) скачать торрент Комедия - Торрент-Трекер находится под похожими раздачами Download Torrent
Весенние каникулы / Spring Break (HDRip) скачать торрент Комедия - Торрент-Трекер
Скриншоты Весенние каникулы / Spring Break

скачать торрент, Игры на PC, Download Torrent, мультфильм, фильм, hdrip, Комедия
Добавил: SxS | Просмотров: 46 | Рейтинг: 0.0/0
Добавлять комментарии могут только зарегистрированные пользователи.
[ Регистрация | Вход ]
Ужасы [101]
Horrors
Фантастика [86]
Fantastic
Боевик [101]
Action
Триллер [104]
Thriller
Криминал [3]
Crime
Военный [2]
Military
Вестерн [11]
Western
Документальный [6]
Documentary
Биография [4]
Biography
Драма [264]
Drama
Мелодрама [24]
Melodrama
Комедия [77]
Comedy
Мюзикл [7]
Musical
Приключения [13]
Adventure
Пародия [6]
Parody
Мультфильмы [23]
Cartoons
Мультсериал [1]
Animated series
Аниме [2]
Anime
Форма входа
Поиск
Лучшие раздачи