Приветствую Вас Гость

World of Warships [SOI] RU+CIS
Торрент-Трекер » HDRip » Комедия

Укол зонтиком / Le Coup Du Parapluie (HDRip) скачать торрент

[ ]



Укол зонтиком / Le Coup Du Parapluie (HDRip) скачать торрент Комедия - Торрент-Трекер

Информация о фильме
Название: Укол зонтиком
Оригинальное название: Le Coup Du Parapluie
Год выхода: 1980
Жанр: Комедия, криминал
Режиссер: Жерар Ури
В ролях: Пьер Ришар, Валери Мересс, Кристин Мурильо, Гордон Митчелл, Жерар Жюньо, Морис Риш, Доминик Лаванан, Аксель Аббади, Ясин Хан, Дидье Совегран, Майк Маршалл, Роже Карель, Витторио Каприоли, Герт Фрёбе, Патрик Лекок, Беатрис Авуан, Тиберио Мурджа, Рашель Кату, Робер Дальбан, Жан-Жак Моро, Леон Зитрон, Эрик Демарец, Жером Кин, Жорж Андерсон, Филипп Ламенден, Филипп БруноЭ, Катрин Лекок, Мишель Карнуа, Жак Мори, Андре Шазель, Анник Ру, Маржори Годен, Паскаль Саблье, Сюзи Госсен, Доминик Виртон, Мишлин Кан, Мари-Пьер Кэйси, Беатрис Халими, Даниэль Бретон, Жерар Муасан

О фильме: Актёр Грегуар Леконт получает приглашение сняться в кино в роли киллера, он ошибается дверью и попадает к мафии которые дают ему задание убрать бандита по кличке «Кит» и снабжают его зонтиком с отравленной иглой. Грегуар приступает к работе не подозревая, что впутался в криминал. Тем временем настоящий убийца идет по его следу..

Страна: Франция
Студия: Gaumont
Продолжительность: 01:35:26
Перевод: Дублированный | Советский дубляж
Субтитры: Нет

Файл
Кодек: XviD
Качество: HDRip
Видео: 640x384 (1.67:1), 24.000 fps, XviD build 73 ~953 kbps avg, 0.16 bit/pixel
Звук: 48 kHz, MPEG Layer 3, 2 ch, ~128.00 kbps avg

MediaInfo
General
Complete name: Le.Coup.Du.Parapluie.1980.HDRip.ot.Portablius.avi
Format: AVI
Format/Info: Audio Video Interleave
File size: 744 MiB
Duration: 1 h 35 min
Overall bit rate: 1 091 kb/s
Writing application: VirtualDubMod 1.5.10.3 | www.virtualdub-fr.org || (build 2550/release)
Writing library: VirtualDubMod build 2550/release

Video
ID: 0
Format: MPEG-4 Visual
Format profile: Advanced Simple@L5
Format settings, BVOP: 1
Format settings, QPel: No
Format settings, GMC: No warppoints
Format settings, Matrix: Custom
Codec ID: XVID
Codec ID/Hint: XviD
Duration: 1 h 35 min
Bit rate: 953 kb/s
Width: 640 pixels
Height: 384 pixels
Display aspect ratio: 5:3
Frame rate: 24.000 FPS
Color space: YUV
Chroma subsampling: 4:2:0
Bit depth: 8 bits
Scan type: Progressive
Compression mode: Lossy
Bits/(Pixel*Frame): 0.162
Stream size: 651 MiB (87%)
Writing library: XviD 73

Audio
ID: 1
Format: MPEG Audio
Format version: Version 1
Format profile: Layer 3
Codec ID: 55
Codec ID/Hint: MP3
Duration: 1 h 35 min
Bit rate mode: Constant
Bit rate: 128 kb/s
Channel(s): 2 channels
Sampling rate: 48.0 kHz
Compression mode: Lossy
Stream size: 87.4 MiB (12%)
Alignment: Aligned on interleaves
Interleave, duration: 42 ms (1.00 video frame)
Interleave, preload duratio: 504 ms
Writing library: LAME3.99r
Encoding settings: -m s -V 4 -q 2 -lowpass 17 -b 1
Ссылка Укол зонтиком / Le Coup Du Parapluie (HDRip) скачать торрент Комедия - Торрент-Трекер находится под похожими раздачами Download Torrent
Укол зонтиком / Le Coup Du Parapluie (HDRip) скачать торрент Комедия - Торрент-Трекер
Скриншоты Укол зонтиком / Le Coup Du Parapluie

скачать торрент, Игры на PC, Download Torrent, мультфильм, фильм, hdrip, Комедия
Добавил: SxS | Просмотров: 19 | Рейтинг: 0.0/0
Добавлять комментарии могут только зарегистрированные пользователи.
[ Регистрация | Вход ]
Ужасы [101]
Horrors
Фантастика [86]
Fantastic
Боевик [101]
Action
Триллер [104]
Thriller
Криминал [3]
Crime
Военный [2]
Military
Вестерн [11]
Western
Документальный [6]
Documentary
Биография [4]
Biography
Драма [264]
Drama
Мелодрама [24]
Melodrama
Комедия [77]
Comedy
Мюзикл [7]
Musical
Приключения [13]
Adventure
Пародия [6]
Parody
Мультфильмы [23]
Cartoons
Мультсериал [1]
Animated series
Аниме [2]
Anime
Форма входа
Поиск
Лучшие раздачи