Приветствую Вас Гость

World of Warships [SOI] RU+CIS
Торрент-Трекер » HDRip » Комедия

Клуб «Школа» / Public Schooled (HDRip) скачать торрент

[ ]



Клуб «Школа» / Public Schooled (HDRip) скачать торрент Комедия - Торрент-Трекер

Информация о фильме
Название: Клуб «Школа»
Оригинальное название: Public Schooled
Год выхода: 2017
Жанр: Комедия
Режиссер: Кайл Райдаут
В ролях: Дэниэл Доэни, Джуди Грир, Шиван Уильямс, Эндрю МакНи, Грейс Пак, Расселл Питерс, Алекс Бармия, Эндрю Херр, Андреа Банг, Эва Дэй и др.

О фильме: История взросления одаренного Лиама, внезапно окунувшегося в жизнь обыкновенной средней школы, где его ждут уроки по основам сексуальной жизни и дебоширства. Подросток впервые идет в школу в 16 лет. Ранее он обучался на дому, находясь под контролем своей чрезмерно заботливой мамы Клэр. Лиаму открывается совершенно новый мир, полный новых друзей и невероятных событий. Влюбившись в одну девушку, домашний мальчик пытается стать отвязным парнем, чтобы завоевать ее сердце, и его мама соглашается ему в этом помочь.

Страна: Канада, США
Продолжительность: 01:26:08
Перевод: Дублированный | iTunes
Субтитры: русские, форсированные (вшитые)

Файл
Кодек: XviD
Качество: HDRip
Видео: 704x384 (1.83:1), 23.976 fps, XviD build 73 ~1071 kbps avg, 0.17 bit/pixel
Звук: 48 kHz, MPEG Layer 3, 2 ch, ~128.00 kbps avg

MediaInfo
General
Complete name: Public.Schooled.2017.HDRip.ot.Portablius.avi
Format: AVI
Format/Info: Audio Video Interleave
File size: 745 MiB
Duration: 1 h 26 min
Overall bit rate: 1 209 kb/s
Writing application: VirtualDubMod 1.5.10.3 | www.virtualdub-fr.org || (build 2550/release)
Writing library: VirtualDubMod build 2550/release

Video
ID: 0
Format: MPEG-4 Visual
Format profile: Advanced Simple@L5
Format settings, BVOP: 1
Format settings, QPel: No
Format settings, GMC: No warppoints
Format settings, Matrix: Custom
Codec ID: XVID
Codec ID/Hint: XviD
Duration: 1 h 26 min
Bit rate: 1 071 kb/s
Width: 704 pixels
Height: 384 pixels
Display aspect ratio: 1.85:1
Frame rate: 23.976 (24000/1001) FPS
Color space: YUV
Chroma subsampling: 4:2:0
Bit depth: 8 bits
Scan type: Progressive
Compression mode: Lossy
Bits/(Pixel*Frame): 0.165
Stream size: 660 MiB (89%)
Writing library: XviD 73

Audio
ID: 1
Format: MPEG Audio
Format version: Version 1
Format profile: Layer 3
Codec ID: 55
Codec ID/Hint: MP3
Duration: 1 h 26 min
Bit rate mode: Constant
Bit rate: 128 kb/s
Channel(s): 2 channels
Sampling rate: 48.0 kHz
Compression mode: Lossy
Stream size: 78.8 MiB (11%)
Alignment: Aligned on interleaves
Interleave, duration: 42 ms (1.00 video frame)
Interleave, preload duratio: 504 ms
Writing library: LAME3.99r
Encoding settings: -m s -V 4 -q 2 -lowpass 17 -b 1
Ссылка Клуб «Школа» / Public Schooled (HDRip) скачать торрент Комедия - Торрент-Трекер находится под похожими раздачами Download Torrent
Клуб «Школа» / Public Schooled (HDRip) скачать торрент Комедия - Торрент-Трекер
Скриншоты Клуб «Школа» / Public Schooled

скачать торрент, Игры на PC, Download Torrent, мультфильм, фильм, hdrip, Комедия
Добавил: SxS | Просмотров: 17 | Рейтинг: 0.0/0
Добавлять комментарии могут только зарегистрированные пользователи.
[ Регистрация | Вход ]
Ужасы [101]
Horrors
Фантастика [86]
Fantastic
Боевик [101]
Action
Триллер [104]
Thriller
Криминал [3]
Crime
Военный [2]
Military
Вестерн [11]
Western
Документальный [6]
Documentary
Биография [4]
Biography
Драма [264]
Drama
Мелодрама [24]
Melodrama
Комедия [77]
Comedy
Мюзикл [7]
Musical
Приключения [13]
Adventure
Пародия [6]
Parody
Мультфильмы [23]
Cartoons
Мультсериал [1]
Animated series
Аниме [2]
Anime
Форма входа
Поиск
Лучшие раздачи