Приветствую Вас Гость

Total War: ARENA
Торрент-Трекер » HDRip » Мультфильмы

Бэтмен: Готэм в газовом свете / Batman: Gotham by Gaslight (HDRip) скачать торрент

[ Раздача закрыта по требованию правообладателя ]



Бэтмен: Готэм в газовом свете / Batman: Gotham by Gaslight (HDRip) скачать торрент Мультфильмы - Торрент-Трекер

Информация о фильме
Название: Бэтмен: Готэм в газовом свете
Оригинальное название: Batman: Gotham by Gaslight
Год выхода: 2018
Жанр: мультфильм, фэнтези, боевик, криминал, детектив
Режиссер: Сэм Лью
В ролях: Дженнифер Карпентер, Тара Стронг, Брюс Гринвуд, Скотт Гордон-Паттерсон, Кари Уорер, Грей ДеЛайл, Джон Ди Маджио, Энтони Хэд, Линкольн Мелчер, Юрий Ловенталь

О фильме:
В альтернативной истории в 1889 году Брюс Уэйн возвращается в Готэм из своего путешествия по Европе. Город викторианской эпохи всё так же привлекает преступников. Череда загадочных и зверских убийств заставляет жителей подозревать, что убийца — Бэтмен. Тёмному Рыцарю бросает вызов самый известный маньяк XIX века — Джек-потрошитель.

Страна: США
Продолжительность: 01:17:04
Перевод: Профессиональный многоголосый закадровый (студия Jaskier)

Файл
Кодек: XviD | Avi
Качество: HDRip
Видео: ~ 2156 kbps, 720x400, 23.976 fps
Аудио Rus: AC3, 384 kb/s (6 ch)
Субтитры:отсутствуют
Без рекламы.


MI Общее
Полное имя : D:ЯскъерBatman.Gotham.by.Gaslight.2018.HDRip.Jaskier.avi
Формат : AVI
Формат/Информация : Audio Video Interleave
Размер файла : 1,37 Гбайт
Продолжительность : 1 ч. 17 м.
Общий поток : 2549 Кбит/сек
Программа кодирования : VirtualDubMod 1.5.10.3 | www.virtualdub-fr.org || (build 2550/release)
Библиотека кодирования : VirtualDubMod build 2550/release

Видео
Идентификатор : 0
Формат : MPEG-4 Visual
Профиль формата : Advanced Simple@L5
Настройки формата : BVOP1 / Custom Matrix
Параметр BVOP формата : 1
Параметр QPel формата : Нет
Параметр GMC формата : Без точки перехода
Параметр матрицы формата : Выборочная
Идентификатор кодека : XVID
Идентификатор кодека/Подсказка : XviD
Продолжительность : 1 ч. 17 м.
Битрейт : 2156 Кбит/сек
Ширина : 720 пикселей
Высота : 400 пикселей
Соотношение сторон : 16:9
Частота кадров : 23,976 (24000/1001) кадра/сек
Цветовое пространство : YUV
Субдискретизация насыщенности : 4:2:0
Битовая глубина : 8 бит
Тип развёртки : Прогрессивная
Метод сжатия : С потерями
Бит/(Пиксели*Кадры) : 0.312
Размер потока : 1,16 Гбайт (85%)
Библиотека кодирования : XviD 73

Аудио
Идентификатор : 1
Формат : AC-3
Формат/Информация : Audio Coding 3
Идентификатор кодека : 2000
Продолжительность : 1 ч. 17 м.
Вид битрейта : Постоянный
Битрейт : 384 Кбит/сек
Каналы : 6 каналов
Расположение каналов : Front: L C R, Side: L R, LFE
Частота : 48,0 КГц
Частота кадров : 31,250 кадров/сек (1536 SPF)
Битовая глубина : 16 бит
Метод сжатия : С потерями
Размер потока : 212 Мбайт (15%)
Выравнивание : Разделение по промежуткам
Продолжительность промежутка : 42 мс. (1,00 видеокадр)
Время предзагрузки промежутка : 500 мс.





Ссылка Бэтмен: Готэм в газовом свете / Batman: Gotham by Gaslight (HDRip) скачать торрент Мультфильмы - Торрент-Трекер находится под похожими раздачами Download Torrent
Бэтмен: Готэм в газовом свете / Batman: Gotham by Gaslight (HDRip) скачать торрент Мультфильмы - Торрент-Трекер
Скриншоты Бэтмен: Готэм в газовом свете / Batman: Gotham by Gaslight

скачать торрент, Игры на PC, Download Torrent, мультфильм, фильм, hdrip, Мультфильмы
Добавил: SxS | Просмотров: 12 | Рейтинг: 0.0/0
Добавлять комментарии могут только зарегистрированные пользователи.
[ Регистрация | Вход ]
Ужасы [56]
Horrors
Фантастика [58]
Fantastic
Боевик [66]
Action
Триллер [54]
Thriller
Криминал [2]
Crime
Военный [2]
Military
Вестерн [7]
Western
Документальный [6]
Documentary
Биография [2]
Biography
Драма [188]
Drama
Мелодрама [12]
Melodrama
Комедия [50]
Comedy
Мюзикл [3]
Musical
Приключения [5]
Adventure
Пародия [3]
Parody
Мультфильмы [13]
Cartoons
Мультсериал [1]
Animated series
Аниме [2]
Anime
Форма входа
Поиск
Лучшие раздачи