Приветствую Вас Гость

Total War: ARENA
Торрент-Трекер » HDRip » Аниме

Мэри и ведьмин цветок / Meari to majo no hana (HDRip) скачать торрент

[ Раздача закрыта по требованию правообладателя ]



Мэри и ведьмин цветок / Meari to majo no hana (HDRip) скачать торрент Аниме - Торрент-Трекер

Информация о фильме
Название: Мэри и ведьмин цветок
Оригинальное название: Meari to majo no hana
Год выхода: 2017
Жанр: аниме, мультфильм, приключения, фэнтези
Режиссер: Хиромаса Ёнэбаяси
Роли озвучивали: Хана Сугисаки, Рюносукэ Камики, Юки Амами, Фумиё Кохината, Хикари Мицусима, Дзиро Сато
Роли дублировали: Ольга Шорохова, Михаил Тихонов, Ольга Зубкова, Дмитрий Филимонов, Анастасия Жаркова

О фильме: Скучные каникулы в глухой деревне кажутся юной Мэри сущим наказанием. Но в последнюю неделю лета всё внезапно меняется. Нечаянная находка — дивный цветок — уносит Мэри в далёкое зачарованное царство, в мир, полный невероятных приключений и завораживающих чудес. И этому миру грозит опасность! Вместе с чёрным котом, соседским мальчиком-забиякой и маленькой волшебной метлой ей предстоит пройти через рискованные испытания, спасти жителей сказочной страны, узнать, что такое настоящая дружба и понять: мечты — даже самые необыкновенные — иногда сбываются!

Страна: Япония
Студия: Amuse, Dentsu, Fukuoka Broadcasting, Khara Corporation, Miyagi Television Broadcasting, Walt Disney Studios Japan
Продолжительность: 01:42:49
Перевод: Профессиональный (дублированный) | iTunes
Субтитры: Нет

Файл
Кодек: XviD
Качество: HDRip
Видео: 624x336 (1.86:1), 23.976 fps, XviD build 73 ~813 kbps avg, 0.16 bit/pixel
Звук: 48 kHz, MPEG Layer 3, 2 ch, ~128.00 kbps avg

MediaInfo
General
Complete name: Meari.to.majo.no.hana.2017.HDRip.ot.Portablius.avi
Format: AVI
Format/Info: Audio Video Interleave
File size: 699 MiB
Duration: 1 h 42 min
Overall bit rate: 951 kb/s
Writing application: VirtualDubMod 1.5.10.3 | www.virtualdub-fr.org || (build 2550/release)
Writing library: VirtualDubMod build 2550/release

Video
ID: 0
Format: MPEG-4 Visual
Format profile: Advanced Simple@L5
Format settings, BVOP: 1
Format settings, QPel: No
Format settings, GMC: No warppoints
Format settings, Matrix: Custom
Codec ID: XVID
Codec ID/Hint: XviD
Duration: 1 h 42 min
Bit rate: 814 kb/s
Width: 624 pixels
Height: 336 pixels
Display aspect ratio: 1.85:1
Frame rate: 23.976 (24000/1001) FPS
Color space: YUV
Chroma subsampling: 4:2:0
Bit depth: 8 bits
Scan type: Progressive
Compression mode: Lossy
Bits/(Pixel*Frame): 0.162
Stream size: 598 MiB (86%)
Writing library: XviD 73

Audio
ID: 1
Format: MPEG Audio
Format version: Version 1
Format profile: Layer 3
Codec ID: 55
Codec ID/Hint: MP3
Duration: 1 h 42 min
Bit rate mode: Constant
Bit rate: 128 kb/s
Channel(s): 2 channels
Sampling rate: 48.0 kHz
Compression mode: Lossy
Stream size: 94.1 MiB (13%)
Alignment: Aligned on interleaves
Interleave, duration: 42 ms (1.00 video frame)
Interleave, preload duratio: 504 ms
Writing library: LAME3.99r
Encoding settings: -m s -V 4 -q 2 -lowpass 17 -b 128

ЗалилEvgen Portable
Ссылка Мэри и ведьмин цветок / Meari to majo no hana (HDRip) скачать торрент Аниме - Торрент-Трекер находится под похожими раздачами Download Torrent
Мэри и ведьмин цветок / Meari to majo no hana (HDRip) скачать торрент Аниме - Торрент-Трекер
Скриншоты Мэри и ведьмин цветок / Meari to majo no hana

скачать торрент, Игры на PC, Download Torrent, мультфильм, фильм, hdrip, Аниме
Добавил: SxS | Просмотров: 26 | Загрузок: 2 | Рейтинг: 0.0/0
Добавлять комментарии могут только зарегистрированные пользователи.
[ Регистрация | Вход ]
Ужасы [56]
Horrors
Фантастика [58]
Fantastic
Боевик [66]
Action
Триллер [54]
Thriller
Криминал [2]
Crime
Военный [2]
Military
Вестерн [7]
Western
Документальный [6]
Documentary
Биография [2]
Biography
Драма [188]
Drama
Мелодрама [12]
Melodrama
Комедия [50]
Comedy
Мюзикл [3]
Musical
Приключения [5]
Adventure
Пародия [3]
Parody
Мультфильмы [13]
Cartoons
Мультсериал [1]
Animated series
Аниме [2]
Anime
Форма входа
Поиск
Лучшие раздачи