Приветствую Вас Гость

World of Warships [SOI] RU+CIS
Торрент-Трекер » HDRip » Приключения

Детектив Конан: Стратегия над бездной / Detective Conan: Strategy Above the Depths (HDRip) скачать торрент

[ ]



Детектив Конан: Стратегия над бездной / Detective Conan: Strategy Above the Depths (HDRip) скачать торрент Приключения - Торрент-Трекер

Детектив Конан (фильм 09):Стратегия над бездной / Detective Conan: Strategy Above the Depths / Meitantei Conan: Suihei Senjou no Strategy


Информация о фильме
Название: Детектив Конан 9: Стратегия над бездной
Оригинальное название: Strategy Above the Depths
Год выхода: 2005
Жанр: приключения, детектив
Режиссер: Ямамото Ясуйтиро

О фильме:
Конан с семьей Мори и Юными Сыщиками по приглашению Сузуки Соноко отправляются в плавание на круизном лайнере 'Афродита', построенном корпорацией 'Ясиро Групп'. Однако на борту происходит несколько убийств - кто-то нацелился на руководство корпорации.
Как связаны нынешние убийства с кораблекрушением пятнадцатилетней давности? Почему нападению подверглась Соноко? Наконец, удастся ли Конану сотоварищи благополучно покинуть корабль, превратившийся в смертоносную ловушку?

Доп. информация:

Страна: Япония
Студия: TMS
Продолжительность: 01:47:55
Перевод: Любительский одноголосый (Persona99)

Файл
Кодек: XviD
Качество: HDRip
Видео: 720x400, 23.976 fps, 1496 Kbps, 8 bits
Звук:
1. AC3 48 КГц; 192 Кбит/сек, 2 ch Язык Русский (в составе контейнера) ; Озвучка: Любительский одноголосый (Persona99)
2. AC3 48 КГц; 192 Кбит/сек, 2 ch, Язык Японский ; Озвучка 2: Оригинал
Субтитры: ass, srt Язык субтитров русский ; Перевод, wquolz, тайминг: Roaring_Lion
Sempl:

Подробные тех. данные

General
Complete name: Detective Conan Movie 09 (2005)Detective Conan Movie_09 Strategy Above the Depths.[Persona99].2005.(XviD.720x400.AC3).rus.jpn.avi
Format: AVI
Format/Info: Audio Video Interleave
File size: 1.43 GiB
Duration: 1h 47mn
Overall bit rate: 1 894 Kbps
Writing application: VirtualDubMod 1.5.10.2 (build 2540/release)
Writing library: VirtualDubMod build 2540/release

Video
ID: 0
Format: MPEG-4 Visual
Format profile: Advanced Simple@L5
Format settings, BVOP: 2
Format settings, QPel: No
Format settings, GMC: No warppoints
Format settings, Matrix: Default (H.263)
Codec ID: XVID
Codec ID/Hint: XviD
Duration: 1h 47mn
Bit rate: 1 496 Kbps
Width: 720 pixels
Height: 400 pixels
Display aspect ratio: 16:9
Frame rate: 23.976 fps
Color space: YUV
Chroma subsampling: 4:2:0
Bit depth: 8 bits
Scan type: Progressive
Compression mode: Lossy
Bits/(Pixel*Frame): 0.217
Stream size: 1.13 GiB (79%)
Writing library: XviD 67

Audio #1
ID: 1
Format: AC-3
Format/Info: Audio Coding 3
Mode extension: CM (complete main)
Format settings, Endianness: Big
Codec ID: 2000
Duration: 1h 47mn
Bit rate mode: Constant
Bit rate: 192 Kbps
Channel(s): 2 channels
Channel positions: Front: L R
Sampling rate: 48.0 KHz
Compression mode: Lossy
Stream size: 148 MiB (10%)
Alignment: Split accross interleaves
Interleave, duration: 42 ms (1.00 video frame)
Interleave, preload duration: 500 ms

Audio #2
ID: 2
Format: AC-3
Format/Info: Audio Coding 3
Mode extension: CM (complete main)
Format settings, Endianness: Big
Codec ID: 2000
Duration: 1h 47mn
Bit rate mode: Constant
Bit rate: 192 Kbps
Channel(s): 2 channels
Channel positions: Front: L R
Sampling rate: 48.0 KHz
Compression mode: Lossy
Stream size: 148 MiB (10%)
Alignment: Split accross interleaves
Interleave, duration: 42 ms (1.00 video frame)
Interleave, preload duration: 500
Ссылка Детектив Конан: Стратегия над бездной / Detective Conan: Strategy Above the Depths (HDRip) скачать торрент Приключения - Торрент-Трекер находится под похожими раздачами Download Torrent
Детектив Конан: Стратегия над бездной / Detective Conan: Strategy Above the Depths (HDRip) скачать торрент Приключения - Торрент-Трекер
Скриншоты Детектив Конан: Стратегия над бездной / Detective Conan: Strategy Above the Depths

скачать торрент, Игры на PC, Download Torrent, мультфильм, фильм, hdrip, Приключения
Добавил: SxS | Просмотров: 48 | Рейтинг: 0.0/0
Добавлять комментарии могут только зарегистрированные пользователи.
[ Регистрация | Вход ]
Ужасы [101]
Horrors
Фантастика [86]
Fantastic
Боевик [101]
Action
Триллер [104]
Thriller
Криминал [3]
Crime
Военный [2]
Military
Вестерн [11]
Western
Документальный [6]
Documentary
Биография [4]
Biography
Драма [264]
Drama
Мелодрама [24]
Melodrama
Комедия [77]
Comedy
Мюзикл [7]
Musical
Приключения [13]
Adventure
Пародия [6]
Parody
Мультфильмы [23]
Cartoons
Мультсериал [1]
Animated series
Аниме [2]
Anime
Форма входа
Поиск
Лучшие раздачи