Приветствую Вас Гость

Total War: ARENA
Торрент-Трекер » HDRip » Приключения

Детектив Конан: На перекрестках древней столицы / Detective Conan: Crossroad in the Ancient Capital (HDRip) скачать торрент

[ Раздача закрыта по требованию правообладателя ]



Детектив Конан: На перекрестках древней столицы / Detective Conan: Crossroad in the Ancient Capital (HDRip) скачать торрент Приключения - Торрент-Трекер

Детектив Конан (фильм седьмой):На перекрестках древней столицы / Meitantei Conan: Meikyuu no Crossroad

Информация о фильме
Название: Детектив Конан 7:На перекрестках древней столицы
Оригинальное название: Detective Conan: Crossroad in the Ancient Capital / Meitantei Conan: Meikyuu no Crossroad
Год выхода: 2003
Жанр: приключения, детектив
Режиссер: Кодама Кэндзи

О фильме:
Хаттори Хейджи отправляется в Киото на поиски своей первой любви. В то же время, Конан и Когоро оказываются втянутыми в запутанное дело с похищенной статуей и серией убийств.

Доп. информация:

Страна: Япония
Студия: TMS
Продолжительность: полнометражный фильм, 01:47:57
Перевод: Любительский одноголосый (Persona99)

Файл
Кодек: XviD
Качество: HDRip
Видео: 720x400, 23.976 fps, 1489 Kbps, 8 bits
Звук:
1. AC3 48 КГц; 192 Кбит/сек, 2 ch Язык Русский (в составе контейнера) ; Озвучка: Любительский одноголосый (Persona99)
2. AC3 48 КГц; 192 Кбит/сек, 2 ch, Язык Японский ; Озвучка 2: Оригинал
Субтитры: ass, srt Язык субтитров русский ; Перевод, тайминг: KIRayama

Семпл

Подробные тех. данные

General
Complete name: W:Detective Conan MovieDetective Conan Movie 07 (2003)Detective Conan Movie 07 -Crossroad in the Ancient Capital [Persona99](XviD 720x400 AC3 ).rus.jpn.avi
Format: AVI
Format/Info: Audio Video Interleave
File size: 1.42 GiB
Duration: 1h 47mn
Overall bit rate: 1 887 Kbps
Writing application: VirtualDubMod 1.5.10.2 (build 2540/release)
Writing library: VirtualDubMod build 2540/release

Video
ID: 0
Format: MPEG-4 Visual
Format profile: Advanced Simple@L5
Format settings, BVOP: 2
Format settings, QPel: No
Format settings, GMC: No warppoints
Format settings, Matrix: Default (H.263)
Codec ID: XVID
Codec ID/Hint: XviD
Duration: 1h 47mn
Bit rate: 1 489 Kbps
Width: 720 pixels
Height: 400 pixels
Display aspect ratio: 16:9
Frame rate: 23.976 fps
Color space: YUV
Chroma subsampling: 4:2:0
Bit depth: 8 bits
Scan type: Progressive
Compression mode: Lossy
Bits/(Pixel*Frame): 0.216
Stream size: 1.12 GiB (79%)
Writing library: XviD 67

Audio #1
ID: 1
Format: AC-3
Format/Info: Audio Coding 3
Mode extension: CM (complete main)
Format settings, Endianness: Big
Codec ID: 2000
Duration: 1h 47mn
Bit rate mode: Constant
Bit rate: 192 Kbps
Channel(s): 2 channels
Channel positions: Front: L R
Sampling rate: 48.0 KHz
Compression mode: Lossy
Stream size: 148 MiB (10%)
Alignment: Split accross interleaves
Interleave, duration: 42 ms (1.00 video frame)
Interleave, preload duration: 500 ms

Audio #2
ID: 2
Format: AC-3
Format/Info: Audio Coding 3
Mode extension: CM (complete main)
Format settings, Endianness: Big
Codec ID: 2000
Duration: 1h 47mn
Bit rate mode: Constant
Bit rate: 192 Kbps
Channel(s): 2 channels
Channel positions: Front: L R
Sampling rate: 48.0 KHz
Compression mode: Lossy
Stream size: 148 MiB (10%)
Alignment: Split accross interleaves
Interleave, duration: 42 ms (1.00 video frame)
Interleave, preload duration: 500 ms

Ссылка Детектив Конан: На перекрестках древней столицы / Detective Conan: Crossroad in the Ancient Capital (HDRip) скачать торрент Приключения - Торрент-Трекер находится под похожими раздачами Download Torrent
Детектив Конан: На перекрестках древней столицы / Detective Conan: Crossroad in the Ancient Capital (HDRip) скачать торрент Приключения - Торрент-Трекер
Скриншоты Детектив Конан: На перекрестках древней столицы / Detective Conan: Crossroad in the Ancient Capital

скачать торрент, Игры на PC, Download Torrent, мультфильм, фильм, hdrip, Приключения
Добавил: SxS | Просмотров: 17 | Загрузок: 2 | Рейтинг: 0.0/0
Добавлять комментарии могут только зарегистрированные пользователи.
[ Регистрация | Вход ]
Ужасы [74]
Horrors
Фантастика [69]
Fantastic
Боевик [71]
Action
Триллер [63]
Thriller
Криминал [2]
Crime
Военный [2]
Military
Вестерн [9]
Western
Документальный [6]
Documentary
Биография [2]
Biography
Драма [208]
Drama
Мелодрама [18]
Melodrama
Комедия [58]
Comedy
Мюзикл [5]
Musical
Приключения [8]
Adventure
Пародия [5]
Parody
Мультфильмы [18]
Cartoons
Мультсериал [1]
Animated series
Аниме [2]
Anime
Форма входа
Поиск
Лучшие раздачи