Приветствую Вас Гость

World of Warships [SOI] RU+CIS
Торрент-Трекер » HDRip » Боевик

Заложник / Hostage (HDRip) скачать торрент

[ ]



Заложник / Hostage (HDRip) скачать торрент Боевик - Торрент-Трекер

Информация о фильме
Название: Заложник
Оригинальное название: Hostage
Год выхода: 2005
Жанр: боевик, триллер, драма, криминал, детектив
Режиссер: Флоран Эмилио Сири
В ролях: Брюс Уиллис, Кевин Поллак, Бен Фостер, Джонатан Такер, Маршалл Оллман, Мишель Хорн, Джимми Беннетт, Серена Скотт-Томас, Румер Уиллис, Роберт Неппер

О фильме: Джеф Тэлли, бывший переговорщик секретных служб Лос-Анджелеса, переезжает работать в провинциальный городок, оставив жену и дочь в Лос Анджелесе. Когда в его округе происходит ограбление, три преступника берут в заложники ничего не подозревающую семью. Но у отца семейства есть тайна, которая могла бы поставить под угрозу его семью, а один из преступников уже начал терять самообладание…. Джеф Тэлли должен сделать все, что в его силах, чтобы эта ночь не стала последней для невинных людей.

Страна: США, Германия
Продолжительность: 01:53:12
Перевод: Профессиональный (двухголосый, закадровый) Tycoon - studio
Субтитры: Нет

Файл
Кодек: XviD
Качество: HDRip
Видео: 624x352 (1.77:1), 23.976 fps, XviD build 73 ~783 kbps avg, 0.15 bit/pixel
Звук: 48 kHz, MPEG Layer 3, 2 ch, ~128.00 kbps avg

MediaInfo
General
Complete name: Hostage.2005.HDRip.ot.Portablius.avi
Format: AVI
Format/Info: Audio Video Interleave
File size: 746 MiB
Duration: 1 h 53 min
Overall bit rate: 921 kb/s
Writing application: VirtualDubMod 1.5.10.3 | www.virtualdub-fr.org || (build 2550/release)
Writing library: VirtualDubMod build 2550/release

Video
ID: 0
Format: MPEG-4 Visual
Format profile: Advanced Simple@L5
Format settings, BVOP: 1
Format settings, QPel: No
Format settings, GMC: No warppoints
Format settings, Matrix: Custom
Codec ID: XVID
Codec ID/Hint: XviD
Duration: 1 h 53 min
Bit rate: 784 kb/s
Width: 624 pixels
Height: 352 pixels
Display aspect ratio: 16:9
Frame rate: 23.976 (24000/1001) FPS
Color space: YUV
Chroma subsampling: 4:2:0
Bit depth: 8 bits
Scan type: Progressive
Compression mode: Lossy
Bits/(Pixel*Frame): 0.149
Stream size: 635 MiB (85%)
Writing library: XviD 73

Audio
ID: 1
Format: MPEG Audio
Format version: Version 1
Format profile: Layer 3
Codec ID: 55
Codec ID/Hint: MP3
Duration: 1 h 53 min
Bit rate mode: Constant
Bit rate: 128 kb/s
Channel(s): 2 channels
Sampling rate: 48.0 kHz
Compression mode: Lossy
Stream size: 104 MiB (14%)
Alignment: Aligned on interleaves
Interleave, duration: 42 ms (1.00 video frame)
Interleave, preload duratio: 504 ms
Writing library: LAME3.99r
Encoding settings: -m s -V 4 -q 2 -lowpass 17 -b 1
Ссылка Заложник / Hostage (HDRip) скачать торрент Боевик - Торрент-Трекер находится под похожими раздачами Download Torrent
Заложник / Hostage (HDRip) скачать торрент Боевик - Торрент-Трекер
Скриншоты Заложник / Hostage

скачать торрент, Игры на PC, Download Torrent, мультфильм, фильм, hdrip, Боевик
Добавил: SxS | Просмотров: 51 | Рейтинг: 0.0/0
Добавлять комментарии могут только зарегистрированные пользователи.
[ Регистрация | Вход ]
Ужасы [101]
Horrors
Фантастика [87]
Fantastic
Боевик [101]
Action
Триллер [104]
Thriller
Криминал [3]
Crime
Военный [2]
Military
Вестерн [11]
Western
Документальный [6]
Documentary
Биография [4]
Biography
Драма [264]
Drama
Мелодрама [24]
Melodrama
Комедия [77]
Comedy
Мюзикл [7]
Musical
Приключения [13]
Adventure
Пародия [6]
Parody
Мультфильмы [23]
Cartoons
Мультсериал [1]
Animated series
Аниме [2]
Anime
Форма входа
Поиск
Лучшие раздачи