Приветствую Вас Гость

Total War: ARENA
Торрент-Трекер » HDRip » Боевик

Тень / The Shadow Effect (HDRip) скачать торрент

[ Раздача закрыта по требованию правообладателя ]



Тень / The Shadow Effect (HDRip) скачать торрент Боевик - Торрент-Трекер

Информация о фильме
Название: Тень
Оригинальное название: The Shadow Effect
Год выхода: 2017
Жанр: Боевик, триллер
Режиссеры: Обин Олсон, Амария Олсон
В ролях: Джонатан Рис-Майерс, Майкл Бин, Кэм Жиганде, Бриттани Шоу, Марк МакКалло, Майкл Аарон Миллиган, Марк Эшворт, Шерри Икин, Энди Мэзени, Райан Хомчик

О фильме: В своих навязчивых снах Габриел Ховарт преследует и мастерски убивает людей, а позднее обнаруживает, что его кошмары связаны с реальными политическими расправами. Он обращается за помощью к талантливому доктору Ризу, чтобы разоблачить и пресечь жестокий правительственный эксперимент и отвезти угрозу от своей жены.

Страна: США
Продолжительность: 01:33:54
Перевод: Любительский (многоголосый, закадровый) [RusFilm]
Субтитры: Нет

Файл
Кодек: XviD
Качество: HDRip
Видео: 720x304 (2.37:1), 23.976 fps, XviD build 73 ~901 kbps avg, 0.17 bit/pixel
Звук: 48 kHz, MPEG Layer 3, 2 ch, ~128.00 kbps avg

MediaInfo
General
Complete name: The.Shadow.Effect.2018.HDRip.ot.Portablius.avi
Format: AVI
Format/Info: Audio Video Interleave
File size: 698 MiB
Duration: 1 h 33 min
Overall bit rate: 1 039 kb/s
Writing application: VirtualDubMod 1.5.10.3 | www.virtualdub-fr.org || (build 2550/release)
Writing library: VirtualDubMod build 2550/release

Video
ID: 0
Format: MPEG-4 Visual
Format profile: Advanced Simple@L5
Format settings, BVOP: 1
Format settings, QPel: No
Format settings, GMC: No warppoints
Format settings, Matrix: Custom
Codec ID: XVID
Codec ID/Hint: XviD
Duration: 1 h 33 min
Bit rate: 902 kb/s
Width: 720 pixels
Height: 304 pixels
Display aspect ratio: 2.35:1
Frame rate: 23.976 (24000/1001) FPS
Color space: YUV
Chroma subsampling: 4:2:0
Bit depth: 8 bits
Scan type: Progressive
Compression mode: Lossy
Bits/(Pixel*Frame): 0.172
Stream size: 606 MiB (87%)
Writing library: XviD 73

Audio
ID: 1
Format: MPEG Audio
Format version: Version 1
Format profile: Layer 3
Codec ID: 55
Codec ID/Hint: MP3
Duration: 1 h 33 min
Bit rate mode: Constant
Bit rate: 128 kb/s
Channel(s): 2 channels
Sampling rate: 48.0 kHz
Compression mode: Lossy
Stream size: 86.0 MiB (12%)
Alignment: Aligned on interleaves
Interleave, duration: 42 ms (1.00 video frame)
Interleave, preload duratio: 504 ms
Writing library: LAME3.99r
Encoding settings: -m s -V 4 -q 2 -lowpass 17 -b 1
Ссылка Тень / The Shadow Effect (HDRip) скачать торрент Боевик - Торрент-Трекер находится под похожими раздачами Download Torrent
Тень / The Shadow Effect (HDRip) скачать торрент Боевик - Торрент-Трекер
Скриншоты Тень / The Shadow Effect

скачать торрент, Игры на PC, Download Torrent, мультфильм, фильм, hdrip, Боевик
Добавил: SxS | Просмотров: 20 | Рейтинг: 0.0/0
Добавлять комментарии могут только зарегистрированные пользователи.
[ Регистрация | Вход ]
Ужасы [80]
Horrors
Фантастика [75]
Fantastic
Боевик [78]
Action
Триллер [76]
Thriller
Криминал [2]
Crime
Военный [2]
Military
Вестерн [9]
Western
Документальный [6]
Documentary
Биография [3]
Biography
Драма [228]
Drama
Мелодрама [20]
Melodrama
Комедия [66]
Comedy
Мюзикл [5]
Musical
Приключения [11]
Adventure
Пародия [5]
Parody
Мультфильмы [21]
Cartoons
Мультсериал [1]
Animated series
Аниме [2]
Anime
Форма входа
Поиск
Лучшие раздачи