Приветствую Вас Гость

Total War: ARENA
Торрент-Трекер » HDRip » Боевик

Такси / Taxi (HDRip) скачать торрент

[ Раздача закрыта по требованию правообладателя ]



Такси / Taxi (HDRip) скачать торрент Боевик - Торрент-Трекер

Год выпуска: 1998
Страна: Франция
Жанр: боевик, комедия, криминал
Продолжительность: 1:29:50
Перевод: Профессиональный (дублированный) [со вставками MVO]
Оригинальная аудиодорожка: нет
Cубтитры: нет

Режиссер: Жерар Пиреc / Gerard Pires

В ролях: Сами Насери, Фридерик Дифенталь, Марион Котийяр, Мануэла Гурари, Эмма Сьоберг, Бернар Фарси, Жорж Нери, Сабина Бэйл

Описание: Молодой таксист Даниэль помешан на быстрой езде. Как ураган проносится он по извилистым улицам Марселя на своем мощном ревущем звере «Пежо», пугая пассажиров и прохожих. Неподкупный полицейский Эмильен вынуждает его помочь в поимке банды грабителей, ускользающих от полиции на своих неуловимых «Мерседесах». И до самого конца не ясно, кто же сможет удержаться на крутом вираже…

Качество: HDRip
Контейнер: AVI
Видео кодек: XviD
Аудио кодек: MP3
Видео: 688x288 (2.39:1), 23.976 fps, XviD build 73 ~1021 kbps avg, 0.22 bit/pixel
Аудио: 48 kHz, MPEG Layer 3, 2 ch, ~128.00 kbps avg
Раздача от:

MI
Код
D:Taxi.1998.HDRip.745mb.dexter_lex.avi
General
Complete name: D:Taxi.1998.HDRip.745mb.dexter_lex.avi
Format: AVI
Format/Info: Audio Video Interleave
File size: 745 MiB
Duration: 1h 29mn
Overall bit rate: 1 159 Kbps
Writing application: VirtualDubMod 1.5.10.3 | www.virtualdub-fr.org || (build 2550/release)
Writing library: VirtualDubMod build 2550/release
Video #0
ID: 0
Format: MPEG-4 Visual
Format profile: Advanced Simple@L5
Format settings, BVOP: 1
Format settings, QPel: No
Format settings, GMC: No warppoints
Format settings, Matrix: Custom
Codec ID: XVID
Codec ID/Hint: XviD
Duration: 1h 29mn
Bit rate: 1 022 Kbps
Width: 688 pixels
Height: 288 pixels
Display aspect ratio: 2.40:1
Frame rate: 23.976 fps
Color space: YUV
Chroma subsampling: 4:2:0
Bit depth: 8 bits
Scan type: Progressive
Compression mode: Lossy
Bits/(Pixel*Frame): 0.215
Stream size: 657 MiB (88%)
Writing library: XviD 73
Audio #1
ID: 1
Format: MPEG Audio
Format version: Version 1
Format profile: Layer 3
Codec ID: 55
Codec ID/Hint: MP3
Duration: 1h 29mn
Bit rate mode: Constant
Bit rate: 128 Kbps
Channel(s): 2 channels
Sampling rate: 48.0 KHz
Compression mode: Lossy
Stream size: 82.2 MiB (11%)
Alignment: Aligned on interleaves
Interleave, duration: 42 ms (1.00 video frame)
Interleave, preload duration: 504 ms
Writing library: LAME3.99r
Encoding settings: -m s -V 4 -q 2 -lowpass 17 -b 128


Ссылка Такси / Taxi (HDRip) скачать торрент Боевик - Торрент-Трекер находится под похожими раздачами Download Torrent
Такси / Taxi (HDRip) скачать торрент Боевик - Торрент-Трекер
Скриншоты Такси / Taxi

скачать торрент, Игры на PC, Download Torrent, мультфильм, фильм, hdrip, Боевик
Добавил: SxS | Просмотров: 13 | Рейтинг: 0.0/0
Добавлять комментарии могут только зарегистрированные пользователи.
[ Регистрация | Вход ]
Ужасы [80]
Horrors
Фантастика [75]
Fantastic
Боевик [78]
Action
Триллер [76]
Thriller
Криминал [2]
Crime
Военный [2]
Military
Вестерн [9]
Western
Документальный [6]
Documentary
Биография [3]
Biography
Драма [228]
Drama
Мелодрама [20]
Melodrama
Комедия [66]
Comedy
Мюзикл [5]
Musical
Приключения [11]
Adventure
Пародия [5]
Parody
Мультфильмы [21]
Cartoons
Мультсериал [1]
Animated series
Аниме [2]
Anime
Форма входа
Поиск
Лучшие раздачи