Приветствую Вас Гость

World of Warships [SOI] RU+CIS
Торрент-Трекер » HDRip » Боевик

Свободный штат Джонса / Free State of Jones (HDRip) скачать торрент

[ ]



Свободный штат Джонса / Free State of Jones (HDRip) скачать торрент Боевик - Торрент-Трекер

Информация о фильме
Название: Свободный штат Джонса
Оригинальное название: Free State of Jones
Год выхода: 2016
Жанр: Боевик, драма, военный, биография, история
Режиссер: Гэри Росс
В ролях: Мэттью МакКонахи, Гугу Мбата-Роу, Махершала Али, Кери Расселл, Кристофер Берри, Шон Бриджерс, Джейкоб Лофленд, Томас Мерфи, Билл Тангради, Брайан Франклин

О фильме: События фильма разворачиваются во время гражданской войны в США. После участия в битве при Коринфе Ньютон Найт — бедный фермер из Миссисипи возглавляет группу дезертиров из армии Конфедерации, выступающих за отмену рабства. Вместе они обустраиваются в округе Джонс, и начинают борьбу против сил Конфедерации.

Страна: США
Студия: Bluegrass Films, Larger Than Life Productions, Route One Films, Vendian Entertainment
Продолжительность: 02:19:55
Перевод: Профессиональный (многоголосый, закадровый) | iTunes
Субтитры: Нет

Файл
Кодек: XviD
Качество: HDRip
Видео: 592x320 (1.85:1), 23.976 fps, XviD build 73 ~663 kbps avg, 0.15 bit/pixel
Звук: 48 kHz, MPEG Layer 3, 2 ch, ~128.00 kbps avg

MediaInfo
General
Complete name: Free.State.of.Jones.2016.HDRip.ot.Portablius.avi
Format: AVI
Format/Info: Audio Video Interleave
File size: 801 MiB
Duration: 2 h 19 min
Overall bit rate: 800 kb/s
Writing application: VirtualDubMod 1.5.10.3 | www.virtualdub-fr.org || (build 2550/release)
Writing library: VirtualDubMod build 2550/release

Video
ID: 0
Format: MPEG-4 Visual
Format profile: Advanced Simple@L5
Format settings, BVOP: 1
Format settings, QPel: No
Format settings, GMC: No warppoints
Format settings, Matrix: Custom
Codec ID: XVID
Codec ID/Hint: XviD
Duration: 2 h 19 min
Bit rate: 663 kb/s
Width: 592 pixels
Height: 320 pixels
Display aspect ratio: 1.85:1
Frame rate: 23.976 (24000/1001) FPS
Color space: YUV
Chroma subsampling: 4:2:0
Bit depth: 8 bits
Scan type: Progressive
Compression mode: Lossy
Bits/(Pixel*Frame): 0.146
Stream size: 664 MiB (83%)
Writing library: XviD 73

Audio
ID: 1
Format: MPEG Audio
Format version: Version 1
Format profile: Layer 3
Codec ID: 55
Codec ID/Hint: MP3
Duration: 2 h 19 min
Bit rate mode: Constant
Bit rate: 128 kb/s
Channel(s): 2 channels
Sampling rate: 48.0 kHz
Compression mode: Lossy
Stream size: 128 MiB (16%)
Alignment: Aligned on interleaves
Interleave, duration: 42 ms (1.00 video frame)
Interleave, preload duratio: 504 ms
Writing library: LAME3.99r
Encoding settings: -m s -V 4 -q 2 -lowpass 17 -b 1
Ссылка Свободный штат Джонса / Free State of Jones (HDRip) скачать торрент Боевик - Торрент-Трекер находится под похожими раздачами Download Torrent
Свободный штат Джонса / Free State of Jones (HDRip) скачать торрент Боевик - Торрент-Трекер
Скриншоты Свободный штат Джонса / Free State of Jones

скачать торрент, Игры на PC, Download Torrent, мультфильм, фильм, hdrip, Боевик
Добавил: SxS | Просмотров: 34 | Рейтинг: 0.0/0
Добавлять комментарии могут только зарегистрированные пользователи.
[ Регистрация | Вход ]
Ужасы [101]
Horrors
Фантастика [86]
Fantastic
Боевик [101]
Action
Триллер [104]
Thriller
Криминал [3]
Crime
Военный [2]
Military
Вестерн [11]
Western
Документальный [6]
Documentary
Биография [4]
Biography
Драма [264]
Drama
Мелодрама [24]
Melodrama
Комедия [77]
Comedy
Мюзикл [7]
Musical
Приключения [13]
Adventure
Пародия [6]
Parody
Мультфильмы [23]
Cartoons
Мультсериал [1]
Animated series
Аниме [2]
Anime
Форма входа
Поиск
Лучшие раздачи