Приветствую Вас Гость

Total War: ARENA
Торрент-Трекер » HDRip » Боевик

Сильнейший удар 2 / Shootfighter II (HDRip) скачать торрент

[ Раздача закрыта по требованию правообладателя ]



Сильнейший удар 2 / Shootfighter II (HDRip) скачать торрент Боевик - Торрент-Трекер

Информация о фильме
Название:Сильнейший удар 2
Оригинальное название:Shootfighter II
Год выхода:1996
Жанр:Боевик, боевые искусства
Режиссер:Пол Зиллер
В ролях:Боло Йенг, Уильям Забка, Майкл Бернардо, Чейз Рэндольф, Бретт Бакстер Кларк, Кристи Эйзенберг, Джо Сон, Хорхе Хиль

О фильме:Сын Лу Роулинса, полицейского из Сан-Франциско, погиб в Майами от рук организатора поединков насмерть — кровавого развлечения местных мафиози. Отец поклялся отомстить бандитам и раздавить всю группировку, прекратив, таким образом, чудовищные схватки современных гладиаторов.
Он собирает свою команду бойцов, во главе которой становится учитель восточных единоборств, уроженец Гонконга Шинго. Каждому из них ненавистно жестокое зрелище, и они не оставляют шансов кровожадным преступникам…

Страна:США
Продолжительность:01:30:36
Перевод:Профессиональный (многоголосый, закадровый) (R5)
Субтитры:Нет

Файл
Кодек:XviD
Качество:HDRip
Видео:592x336 (1.76:1), 23.976 fps, XviD build 73 ~940 kbps avg, 0.20 bit/pixel
Звук:48 kHz, MPEG Layer 3, 2 ch, ~128.00 kbps avg

MediaInfo
General
Complete name : Shootfighter.II.1996.HDRip.ot.Portablius.avi
Format : AVI
Format/Info : Audio Video Interleave
File size : 699 MiB
Duration : 1 h 30 min
Overall bit rate : 1 078 kb/s
Writing application : VirtualDubMod 1.5.10.3 | www.virtualdub-fr.org || (build 2550/release)
Writing library : VirtualDubMod build 2550/release

Video
ID : 0
Format : MPEG-4 Visual
Format profile : Advanced Simple@L5
Format settings, BVOP : 1
Format settings, QPel : No
Format settings, GMC : No warppoints
Format settings, Matrix : Custom
Codec ID : XVID
Codec ID/Hint : XviD
Duration : 1 h 30 min
Bit rate : 941 kb/s
Width : 592 pixels
Height : 336 pixels
Display aspect ratio : 16:9
Frame rate : 23.976 (24000/1001) FPS
Original frame rate : 23.976 (23976/1000) FPS
Color space : YUV
Chroma subsampling : 4:2:0
Bit depth : 8 bits
Scan type : Progressive
Compression mode : Lossy
Bits/(Pixel*Frame) : 0.197
Stream size : 610 MiB (87%)
Writing library : XviD 73

Audio
ID : 1
Format : MPEG Audio
Format version : Version 1
Format profile : Layer 3
Codec ID : 55
Codec ID/Hint : MP3
Duration : 1 h 30 min
Bit rate mode : Constant
Bit rate : 128 kb/s
Channel(s) : 2 channels
Sampling rate : 48.0 kHz
Compression mode : Lossy
Stream size : 83.0 MiB (12%)
Alignment : Aligned on interleaves
Interleave, duration : 42 ms (1.00 video frame)
Interleave, preload duratio : 504 ms
Writing library : LAME3.99r
Encoding settings : -m s -V 4 -q 2 -lowpass 17 -b 128


ЗалилEvgen Portable
Ссылка Сильнейший удар 2 / Shootfighter II (HDRip) скачать торрент Боевик - Торрент-Трекер находится под похожими раздачами Download Torrent
Сильнейший удар 2 / Shootfighter II (HDRip) скачать торрент Боевик - Торрент-Трекер
Скриншоты Сильнейший удар 2 / Shootfighter II

скачать торрент, Игры на PC, Download Torrent, мультфильм, фильм, hdrip, Боевик
Добавил: SxS | Просмотров: 15 | Загрузок: 1 | Рейтинг: 5.0/1
Добавлять комментарии могут только зарегистрированные пользователи.
[ Регистрация | Вход ]
Ужасы [56]
Horrors
Фантастика [58]
Fantastic
Боевик [66]
Action
Триллер [54]
Thriller
Криминал [2]
Crime
Военный [2]
Military
Вестерн [7]
Western
Документальный [6]
Documentary
Биография [2]
Biography
Драма [188]
Drama
Мелодрама [12]
Melodrama
Комедия [50]
Comedy
Мюзикл [3]
Musical
Приключения [5]
Adventure
Пародия [3]
Parody
Мультфильмы [13]
Cartoons
Мультсериал [1]
Animated series
Аниме [2]
Anime
Форма входа
Поиск
Лучшие раздачи