Приветствую Вас Гость

Total War: ARENA
Торрент-Трекер » HDRip » Боевик

Рэмбо: Первая кровь / First Blood (HDRip) скачать торрент

[ Раздача закрыта по требованию правообладателя ]



Рэмбо: Первая кровь / First Blood (HDRip) скачать торрент Боевик - Торрент-Трекер

Информация о фильме
Название:Рэмбо: Первая кровь
Оригинальное название:First Blood
Год выхода:1982
Жанр:боевик, триллер, криминал
Режиссер:Тед Котчефф
В ролях:Сильвестр Сталлоне, Ричард Кренна, Брайан Деннехи, Билл МакКинни, Джек Старретт, Майкл Толбот, Крис Малки, Джон МакЛиам, Альф Хамфриз, Дэвид Карузо...

О фильме:Он — эксперт. Эксперт по оружию, ножам и собственному телу. Он человек, специально обученный не замечать боль и погодные условия. Во Вьетнаме его задание было уничтожать вражеский личный состав. Много убивать. Истощать силы врага до полной победы. Рэмбо был лучший. На войне он был героем, а на родине, во имя которой проливалась кровь, он никому не нужен. Не способный приспособиться к мирной жизни Рэмбо путешествует автостопом по городам Америки, встречаясь с однополчанами. Путешествие прекращает провинциальный шериф, ненавидящий бродяг. Попавший в тюрьму по ложному обвинению, вкусивший унижений со стороны администрации, Рэмбо объявляет войну. Войну существующему отношению к ветеранам, беспределу официальных структур и главе местной полиции лично. Совершив фантастический побег из тюрьмы, Джон начинает партизанскую войну в местных лесах. Очень скоро ситуация выходит из под контроля властей и в маленький город вводят части регулярной армии. Бывший боевой командир Джона Рэмбо смог дать лишь один комментарий: «Раз ты привел сюда так много людей, то приготовь побольше мешков для трупов».

Страна:США
Студия:Anabasis N.V., Elcajo Productions
Продолжительность:01:33:07
Перевод:Профессиональный (многоголосый, закадровый) НТВ
Субтитры:Нет

Файл
Кодек:XviD
Качество:HDRip
Видео:688x288 (2.39:1), 23.976 fps, XviD build 73 ~986 kbps avg, 0.21 bit/pixel
Звук:48 kHz, MPEG Layer 3, 2 ch, ~128.00 kbps avg

MediaInfo
General
Complete name : First.Blood.1982.HDRip.ot.Portablius.avi
Format : AVI
Format/Info : Audio Video Interleave
File size : 747 MiB
Duration : 1 h 32 min
Overall bit rate : 1 124 kb/s
Writing application : VirtualDubMod 1.5.10.3 | www.virtualdub-fr.org || (build 2550/release)
Writing library : VirtualDub build 35491/release

Video
ID : 0
Format : MPEG-4 Visual
Format profile : Advanced Simple@L5
Format settings, BVOP : 1
Format settings, QPel : No
Format settings, GMC : No warppoints
Format settings, Matrix : Custom
Codec ID : XVID
Codec ID/Hint : XviD
Duration : 1 h 32 min
Bit rate : 987 kb/s
Width : 688 pixels
Height : 288 pixels
Display aspect ratio : 2.40:1
Frame rate : 23.976 (24000/1001) FPS
Color space : YUV
Chroma subsampling : 4:2:0
Bit depth : 8 bits
Scan type : Progressive
Compression mode : Lossy
Bits/(Pixel*Frame) : 0.208
Stream size : 656 MiB (88%)
Writing library : XviD 73

Audio
ID : 1
Format : MPEG Audio
Format version : Version 1
Format profile : Layer 3
Codec ID : 55
Codec ID/Hint : MP3
Duration : 1 h 32 min
Bit rate mode : Constant
Bit rate : 128 kb/s
Channel(s) : 2 channels
Sampling rate : 48.0 kHz
Compression mode : Lossy
Stream size : 85.1 MiB (11%)
Alignment : Aligned on interleaves
Interleave, duration : 42 ms (1.00 video frame)
Interleave, preload duratio : 504 ms
Writing library : LAME3.99r
Encoding settings : -m s -V 4 -q 2 -lowpass 17 -b 128


ЗалилEvgen Portable
Ссылка Рэмбо: Первая кровь / First Blood (HDRip) скачать торрент Боевик - Торрент-Трекер находится под похожими раздачами Download Torrent
Рэмбо: Первая кровь / First Blood (HDRip) скачать торрент Боевик - Торрент-Трекер
Скриншоты Рэмбо: Первая кровь / First Blood

скачать торрент, Игры на PC, Download Torrent, мультфильм, фильм, hdrip, Боевик
Добавил: SxS | Просмотров: 11 | Рейтинг: 0.0/0
Добавлять комментарии могут только зарегистрированные пользователи.
[ Регистрация | Вход ]
Ужасы [56]
Horrors
Фантастика [58]
Fantastic
Боевик [66]
Action
Триллер [54]
Thriller
Криминал [2]
Crime
Военный [2]
Military
Вестерн [7]
Western
Документальный [6]
Documentary
Биография [2]
Biography
Драма [188]
Drama
Мелодрама [12]
Melodrama
Комедия [50]
Comedy
Мюзикл [3]
Musical
Приключения [5]
Adventure
Пародия [3]
Parody
Мультфильмы [13]
Cartoons
Мультсериал [1]
Animated series
Аниме [2]
Anime
Форма входа
Поиск
Лучшие раздачи