Приветствую Вас Гость

Total War: ARENA
Торрент-Трекер » HDRip » Боевик

Прямая и явная угроза / Clear and Present Danger (HDRip) скачать торрент

[ Раздача закрыта по требованию правообладателя ]



Прямая и явная угроза / Clear and Present Danger (HDRip) скачать торрент Боевик - Торрент-Трекер

Страна: США
Жанр: Боевик
Год выпуска: 1994
Продолжительность: 02:21:16

Перевод: Профессиональный (двухголосый закадровый) Премьер
Субтитры: нет
Оригинальная аудиодорожка: английский

Режиссер: Филлип Нойс / Phillip Noyce

В ролях: Харрисон Форд, Уильям Дефо, Патрик Бергин, Энн Арчер, Жоаким Де Альмейда, Хенри Черни, Харрис Юлин, Джеймс Эрл Джонс, Мигель Сандовал, Бенджамин Братт, Доналд Моффэт

Описание: Джек Райан (Харрисон Форд) на этот раз оказывается во главе отдела разведки ЦРУ, и вхож в Овальный кабинет Белого Дома. Он вынужден бороться против колумбийских наркодельцов, не ведая, что при попустительстве президента США его помощник по национальной безопасности и шеф ЦРУ проводят, с помощью наемников, боевые операции в Колумбии.

За дорожку спасибо Fikaloid

Качество видео: HDRip
Формат видео: AVI

Видео: 720x320 (2.25:1), 23.976 fps, XviD build 50 ~1078 kbps avg, 0.20 bit/pixel
Аудио 1: 48 kHz, AC3 Dolby Digital, 2/0 (L,R) ch, ~192 kbps / Премьер
Аудио 2: 48 kHz, AC3 Dolby Digital, 2/0 (L,R) ch, ~192 kbps / Original Eng

MediaInfo

General
Complete name: D:Прямая и явная угроза.avi
Format: AVI
Format/Info: Audio Video Interleave
File size: 1.46 GiB
Duration: 2h 21mn
Overall bit rate: 1 477 Kbps
Writing application: VirtualDubMod 1.5.10.2 (build 2540/release)
Writing library: VirtualDubMod build 2540/release

Video
ID: 0
Format: MPEG-4 Visual
Format profile: Advanced Simple@L5
Format settings, BVOP: 1
Format settings, QPel: No
Format settings, GMC: No warppoints
Format settings, Matrix: Default (MPEG)
Codec ID: XVID
Codec ID/Hint: XviD
Duration: 2h 21mn
Bit rate: 1 079 Kbps
Width: 720 pixels
Height: 320 pixels
Display aspect ratio: 2.25:1
Frame rate: 23.976 fps
Color space: YUV
Chroma subsampling: 4:2:0
Bit depth: 8 bits
Scan type: Progressive
Compression mode: Lossy
Bits/(Pixel*Frame): 0.195
Stream size: 1.06 GiB (73%)
Writing library: XviD 1.2.1 (UTC 2008-12-04)

Audio #1
ID: 1
Format: AC-3
Format/Info: Audio Coding 3
Mode extension: CM (complete main)
Format settings, Endianness: Big
Codec ID: 2000
Duration: 2h 21mn
Bit rate mode: Constant
Bit rate: 192 Kbps
Channel(s): 2 channels
Channel positions: Front: L R
Sampling rate: 48.0 KHz
Bit depth: 16 bits
Compression mode: Lossy
Stream size: 194 MiB (13%)
Alignment: Split accross interleaves
Interleave, duration: 42 ms (1.00 video frame)
Interleave, preload duration: 500 ms

Audio #2
ID: 2
Format: AC-3
Format/Info: Audio Coding 3
Mode extension: CM (complete main)
Format settings, Endianness: Big
Codec ID: 2000
Duration: 2h 21mn
Bit rate mode: Constant
Bit rate: 192 Kbps
Channel(s): 2 channels
Channel positions: Front: L R
Sampling rate: 48.0 KHz
Bit depth: 16 bits
Compression mode: Lossy
Stream size: 194 MiB (13%)
Alignment: Split accross interleaves
Interleave, duration: 42 ms (1.00 video frame)
Interleave, preload duration: 500 ms

Ссылка Прямая и явная угроза / Clear and Present Danger (HDRip) скачать торрент Боевик - Торрент-Трекер находится под похожими раздачами Download Torrent
Прямая и явная угроза / Clear and Present Danger (HDRip) скачать торрент Боевик - Торрент-Трекер
Скриншоты Прямая и явная угроза / Clear and Present Danger

скачать торрент, Игры на PC, Download Torrent, мультфильм, фильм, hdrip, Боевик
Добавил: SxS | Просмотров: 12 | Загрузок: 1 | Рейтинг: 0.0/0
Добавлять комментарии могут только зарегистрированные пользователи.
[ Регистрация | Вход ]
Ужасы [56]
Horrors
Фантастика [58]
Fantastic
Боевик [66]
Action
Триллер [53]
Thriller
Криминал [2]
Crime
Военный [2]
Military
Вестерн [7]
Western
Документальный [6]
Documentary
Биография [2]
Biography
Драма [188]
Drama
Мелодрама [12]
Melodrama
Комедия [49]
Comedy
Мюзикл [3]
Musical
Приключения [5]
Adventure
Пародия [3]
Parody
Мультфильмы [13]
Cartoons
Мультсериал [1]
Animated series
Аниме [2]
Anime
Форма входа
Поиск
Лучшие раздачи