Приветствую Вас Гость

Total War: ARENA
Торрент-Трекер » HDRip » Боевик

Перерождение / Re: Born (HDRip) скачать торрент

[ Раздача закрыта по требованию правообладателя ]



Перерождение / Re: Born (HDRip) скачать торрент Боевик - Торрент-Трекер

Перерождение / Re: Born

Страна: Япония
Производство: U'Den Flame Works
Год выпуска: 2016
Жанр:боевик, драма, криминал
Продолжительность: 01:40:02

Режиссер: Юдзи Симомура

В ролях: Так Сакагути, Юра Кондо, Такуми Саито, Акио Оцука, Орсон Мотидзуки, Кэнта, Макото Сакагути, Хитоми Хасэбэ, Марико Синода

Описание: Бывший военный спец ушел на покой и живёт где-то в японской глубинке. Продолжается мирная жизнь недолго. До тех пор, пока в городке не появляются его былые боевые товарищи...

Перевод: Профессиональный (многоголосый, закадровый) | HDrezka Studio
Субтитры: нет

Качество: HDRip
Формат: AVI
Видео кодек: XviD
Аудио кодек: АС3
Видео: 720x304 (2.35:1), 23.976 fps, XviD ~1 696 kbps avg
Аудио: 48.0 kHz, AC3 Dolby Digital, 2/0 (L,R) ch, ~384

Дата премьеры (мир): 25 июля 2016

Media Info
General
Complete name : Re Born (2016) HDRip.avi
Format : AVI
Format/Info : Audio Video Interleave
File size : 1.46 GiB
Duration : 1h 40mn
Overall bit rate : 2 089 Kbps
Writing application : VirtualDubMod 1.5.10.3 | (build 2550/release)
Writing library : VirtualDubMod build 2550/release

Video
ID : 0
Format : MPEG-4 Visual
Format profile : Advanced Simple@L5
Format settings, BVOP : 1
Format settings, QPel : No
Format settings, GMC : No warppoints
Format settings, Matrix : Custom
Codec ID : XVID
Codec ID/Hint : XviD
Duration : 1h 40mn
Bit rate : 1 696 Kbps
Width : 720 pixels
Height : 304 pixels
Display aspect ratio : 2.35:1
Frame rate : 23.976 fps
Color space : YUV
Chroma subsampling : 4:2:0
Bit depth : 8 bits
Scan type : Progressive
Compression mode : Lossy
Bits/(Pixel*Frame) : 0.323
Stream size : 1.18 GiB (81%)
Writing library : XviD 1.2.1 (UTC 2008-12-04)

Audio
ID : 1
Format : AC-3
Format/Info : Audio Coding 3
Mode extension : CM (complete main)
Format settings, Endianness : Big
Codec ID : 2000
Duration : 1h 40mn
Bit rate mode : Constant
Bit rate : 384 Kbps
Channel(s) : 2 channels
Channel positions : Front: L R
Sampling rate : 48.0 KHz
Compression mode : Lossy
Stream size : 275 MiB (18%)
Alignment : Split accross interleaves
Interleave, duration : 42 ms (1.00 video frame)
Interleave, preload duration : 500 ms
ЗалилZha-4k-e
Ссылка Перерождение / Re: Born (HDRip) скачать торрент Боевик - Торрент-Трекер находится под похожими раздачами Download Torrent
Перерождение / Re: Born (HDRip) скачать торрент Боевик - Торрент-Трекер
Скриншоты Перерождение / Re: Born

скачать торрент, Игры на PC, Download Torrent, мультфильм, фильм, hdrip, Боевик
Добавил: SxS | Просмотров: 20 | Загрузок: 2 | Рейтинг: 0.0/0
Добавлять комментарии могут только зарегистрированные пользователи.
[ Регистрация | Вход ]
Ужасы [56]
Horrors
Фантастика [58]
Fantastic
Боевик [66]
Action
Триллер [54]
Thriller
Криминал [2]
Crime
Военный [2]
Military
Вестерн [7]
Western
Документальный [6]
Documentary
Биография [2]
Biography
Драма [188]
Drama
Мелодрама [12]
Melodrama
Комедия [50]
Comedy
Мюзикл [3]
Musical
Приключения [5]
Adventure
Пародия [3]
Parody
Мультфильмы [13]
Cartoons
Мультсериал [1]
Animated series
Аниме [2]
Anime
Форма входа
Поиск
Лучшие раздачи