Приветствую Вас Гость

Total War: ARENA
Торрент-Трекер » HDRip » Боевик

Нанятые для убийства / Hired to Kill (HDRip) скачать торрент

[ Раздача закрыта по требованию правообладателя ]



Нанятые для убийства / Hired to Kill (HDRip) скачать торрент Боевик - Торрент-Трекер

Страна: США
Жанр: Боевик
Год выпуска: 1990
Продолжительность: 01:36:28

Перевод: Авторский (одноголосый закадровый) Вартан Дохалов
Субтитры: нет
Режиссер: Нико Масторакис / Nico Mastorakis, Питер Рейдер / Peter Rader

В ролях: Брайан Томпсон, Оливер Рид, Джордж Кеннеди, Хосе Феррер, Мишель Моффетт, Барбара Нивен, Джордана Капра, Кендалл Конрад, Ким Лонсдэйл, Джуд Муссеттер

Описание: Убийце-профессионалу Фрэнку Райену для выполнения чрезвычайно важного и опасного задания необходимо проникнуть в некое государство Сайпра известное в мире своим кровавым тоталитарно-диктаторским режимом и зверствующей контрразведкой. Сочиняется шикарная легенда — и Райен становится молодым талантливым художником-модельером Сесилом Торнтоном, который вместе со своей труппой манекенщиц приезжает в Сайпру для демонстрации новой коллекции одежды.

Доп. информация: Дорожка с В. Дохаловым синхронизирована и наложенаale_x2008 при помощи Sony Vegas и VirtualDubMod.

За оцифрованную с VHS дорожку благодарим - RoxMarty

Качество видео: HDRip
Формат видео: AVI

Видео: XviD build 73, 720x384 (1.88:1), 24 fps, 1967 kbps avg, 0.30 bit/pixel
Аудио: AC3 Dolby Digital, 48000Hz 2/0 (L,R) ch (mono), 192.00 kbps avg

MediaInfo

Нанятые для убийства - Hired to Kill [by ale_x2008].avi
Format: AVI
Format/Info: Audio Video Interleave
File size: 1.46 GiB
Duration: 1 h 36 min
Overall bit rate: 2 169 kb/s
Writing application: VirtualDubMod 1.5.10.2 (build 2540/release)
Writing library: VirtualDubMod build 2540/release

Video
ID: 0
Format: MPEG-4 Visual
Format profile: Advanced Simple@L5
Format settings, BVOP: 1
Format settings, QPel: No
Format settings, GMC: No warppoints
Format settings, Matrix: Custom
Codec ID: XVID
Codec ID/Hint: XviD
Duration: 1 h 36 min
Bit rate: 1 968 kb/s
Width: 720 pixels
Height: 384 pixels
Display aspect ratio: 1.85:1
Frame rate: 24.000 FPS
Color space: YUV
Chroma subsampling: 4:2:0
Bit depth: 8 bits
Scan type: Progressive
Compression mode: Lossy
Bits/(Pixel*Frame): 0.297
Stream size: 1.33 GiB (91%)
Writing library: XviD 73

Audio
ID: 1
Format: AC-3
Format/Info: Audio Coding 3
Format settings, Endianness: Big
Codec ID: 2000
Duration: 1 h 36 min
Bit rate mode: Constant
Bit rate: 192 kb/s
Channel(s): 2 channels
Channel positions: Front: L R
Sampling rate: 48.0 kHz
Frame rate: 31.250 FPS (1536 spf)
Bit depth: 16 bits
Compression mode: Lossy
Stream size: 132 MiB (9%)
Alignment: Split accross interleaves
Interleave, duration: 42 ms (1.00 video frame)
Interleave, preload duratio: 500 ms
Service kind: Complete Main

Ссылка Нанятые для убийства / Hired to Kill (HDRip) скачать торрент Боевик - Торрент-Трекер находится под похожими раздачами Download Torrent
Нанятые для убийства / Hired to Kill (HDRip) скачать торрент Боевик - Торрент-Трекер
Скриншоты Нанятые для убийства / Hired to Kill

скачать торрент, Игры на PC, Download Torrent, мультфильм, фильм, hdrip, Боевик
Добавил: SxS | Просмотров: 26 | Загрузок: 3 | Рейтинг: 5.0/1
Добавлять комментарии могут только зарегистрированные пользователи.
[ Регистрация | Вход ]
Ужасы [56]
Horrors
Фантастика [58]
Fantastic
Боевик [66]
Action
Триллер [54]
Thriller
Криминал [2]
Crime
Военный [2]
Military
Вестерн [7]
Western
Документальный [6]
Documentary
Биография [2]
Biography
Драма [188]
Drama
Мелодрама [12]
Melodrama
Комедия [50]
Comedy
Мюзикл [3]
Musical
Приключения [5]
Adventure
Пародия [3]
Parody
Мультфильмы [13]
Cartoons
Мультсериал [1]
Animated series
Аниме [2]
Anime
Форма входа
Поиск
Лучшие раздачи