Приветствую Вас Гость

Total War: ARENA
Торрент-Трекер » HDRip » Боевик

Код 211 / 211 (HDRip) скачать торрент

[ Раздача закрыта по требованию правообладателя ]



Код 211 / 211 (HDRip) скачать торрент Боевик - Торрент-Трекер


Информация о фильме
Название:Код 211
Оригинальное название:211
Год выпуска: 2018
Страна: США
Жанр:боевик, драма, история
Перевод: Профессиональный многоголосый [HDRezka Studio]
Примечание: Релиз без рекламы
Продолжительность: 01:27:04
Режиссер: Йорк Шеклтон
В ролях: Николас Кейдж (Mike Chandler), Софи Скелтон (Lisa MacAvoy), Майкл Рейни мл. (Kenny), Дуэйн Камерон (Steve MacAvoy), Уэстон Кейдж (Luke), Кори Хардрикт (Hanson), Ори Феффер (Tre), Марк Баснайт (Police Chief), Аманда Серни (Sarah), Майкл Беллисарио (Hyde), Рэймонд Стирс (Mandell), Derek Horse (Floyd)

Описание:
Полицейский код 211 - ограбление банка. Такой сигнал получает офицер Чандлер во время своей смены. Он бросается на место событий, чтобы не позволить преступникам сбежать с добычей.
Рейтинг:

MPAA: R - Лицам до 17 лет обязательно присутствие взрослого
Качество: HDRip
Формат: AVI
Видео:XviD, 704x384 (1.85:1), 2051 kbps, 23,976 fps, 0,316 bpp
Аудио:AC3 / 2.0 / 48 kHz / 192 kbps /
Сэмпл

Релиз от:

ОтчетМедиаИнфо
Общее
Полное имя : F:211.2018.MVO.HDRip.R.G.Resident.avi
Формат : AVI
Формат/Информация : Audio Video Interleave
Размер файла : 1,37 Гбайт
Продолжительность : 1 ч. 27 м.
Общий поток : 2252 Кбит/сек
Программа кодирования : VirtualDubModRus 1.5.10.2 (build 2542/release)
Библиотека кодирования : VirtualDubMod build 2542/release

Видео
Идентификатор : 0
Формат : MPEG-4 Visual
Профиль формата : Advanced Simple@L5
Настройки формата : BVOP1 / Custom Matrix
Параметр BVOP формата : 1
Параметр QPel формата : Нет
Параметр GMC формата : Без точки перехода
Параметр матрицы формата : Выборочная
Идентификатор кодека : XVID
Идентификатор кодека/Подсказка : XviD
Продолжительность : 1 ч. 27 м.
Битрейт : 2051 Кбит/сек
Ширина : 704 пикселя
Высота : 384 пикселя
Соотношение сторон : 1,85:1
Частота кадров : 23,976 (24000/1001) кадра/сек
Цветовое пространство : YUV
Субдискретизация насыщенности : 4:2:0
Битовая глубина : 8 бит
Тип развёртки : Прогрессивная
Метод сжатия : С потерями
Бит/(Пиксели*Кадры) : 0.316
Размер потока : 1,25 Гбайт (91%)
Библиотека кодирования : XviD 73

Аудио
Идентификатор : 1
Формат : AC-3
Формат/Информация : Audio Coding 3
Идентификатор кодека : 2000
Продолжительность : 1 ч. 27 м.
Вид битрейта : Постоянный
Битрейт : 192 Кбит/сек
Каналы : 2 канала
Расположение каналов : Front: L R
Частота : 48,0 КГц
Частота кадров : 31,250 кадров/сек (1536 SPF)
Битовая глубина : 16 бит
Метод сжатия : С потерями
Размер потока : 120 Мбайт (9%)
Выравнивание : Разделение по промежуткам
Продолжительность промежутка : 42 мс. (1,00 видеокадр)
Время предзагрузки промежутка : 500 мс.

ЗалилR.G. Resident
Ссылка Код 211 / 211 (HDRip) скачать торрент Боевик - Торрент-Трекер находится под похожими раздачами Download Torrent
Код 211 / 211 (HDRip) скачать торрент Боевик - Торрент-Трекер
Скриншоты Код 211 / 211

скачать торрент, Игры на PC, Download Torrent, мультфильм, фильм, hdrip, Боевик
Добавил: SxS | Просмотров: 25 | Рейтинг: 0.0/0
Добавлять комментарии могут только зарегистрированные пользователи.
[ Регистрация | Вход ]
Ужасы [56]
Horrors
Фантастика [58]
Fantastic
Боевик [66]
Action
Триллер [54]
Thriller
Криминал [2]
Crime
Военный [2]
Military
Вестерн [7]
Western
Документальный [6]
Documentary
Биография [2]
Biography
Драма [188]
Drama
Мелодрама [12]
Melodrama
Комедия [50]
Comedy
Мюзикл [3]
Musical
Приключения [5]
Adventure
Пародия [3]
Parody
Мультфильмы [13]
Cartoons
Мультсериал [1]
Animated series
Аниме [2]
Anime
Форма входа
Поиск
Лучшие раздачи