Приветствую Вас Гость

World of Warships [SOI] RU+CIS
Торрент-Трекер » HDRip » Боевик

22 пули: Бессмертный / L'immortel (HDRip) скачать торрент

[ ]



22 пули: Бессмертный / L'immortel (HDRip) скачать торрент Боевик - Торрент-Трекер

Информация о фильме
Название: 22 пули: Бессмертный
Оригинальное название: L'immortel
Год выхода: 2010
Жанр: боевик, драма, криминал
Режиссер: Ришар Берри
В ролях: Жан Рено, Кад Мерад, Жан-Пьер Дарруссен, Марина Фоис, Джои Старр, Ришар Берри, Венантино Венантини, Клоди Жансак, Жозефин Берри, Макс Бесетт де Малглейв

О фильме: Шарль Матей — один из крестных отцов Марселя. Он решает отойти от дел и жить на покое, ведь ему немало лет, а за спиной слишком бурная жизнь. Но компаньоны против такого поворота событий. На него совершают жестокое покушение, не оставляя ему ни одного шанса.

Страна: Франция
Студия: Canal+ [fr], Cine Cinemas, Europa Corp.
Продолжительность: 01:57:00
Перевод: Профессиональный (дублированный) Ren-TV
Субтитры: Нет

Файл
Кодек: XviD
Качество: HDRip
Видео: 720x304 (2.37:1), 24.000 fps, XviD build 73 ~1567 kbps avg, 0.30 bit/pixel
Звук: 48 kHz, AC3 Dolby Digital, 2/0 (L,R) ch, ~192 kbps

MediaInfo
General
Complete name: L.immortel.2010.HDRip.ot.Portablius.avi
Format: AVI
Format/Info: Audio Video Interleave
File size: 1.45 GiB
Duration: 1 h 57 min
Overall bit rate: 1 769 kb/s
Writing application: VirtualDubMod 1.5.10.3 | www.virtualdub-fr.org || (build 2550/release)
Writing library: VirtualDubMod build 2550/release

Video
ID: 0
Format: MPEG-4 Visual
Format profile: Advanced Simple@L5
Format settings, BVOP: 1
Format settings, QPel: No
Format settings, GMC: No warppoints
Format settings, Matrix: Custom
Codec ID: XVID
Codec ID/Hint: XviD
Duration: 1 h 57 min
Bit rate: 1 567 kb/s
Width: 720 pixels
Height: 304 pixels
Display aspect ratio: 2.35:1
Frame rate: 24.000 FPS
Color space: YUV
Chroma subsampling: 4:2:0
Bit depth: 8 bits
Scan type: Progressive
Compression mode: Lossy
Bits/(Pixel*Frame): 0.298
Stream size: 1.28 GiB (89%)
Writing library: XviD 73

Audio
ID: 1
Format: AC-3
Format/Info: Audio Coding 3
Format settings, Endianness: Big
Codec ID: 2000
Duration: 1 h 57 min
Bit rate mode: Constant
Bit rate: 192 kb/s
Channel(s): 2 channels
Channel positions: Front: L R
Sampling rate: 48.0 kHz
Frame rate: 31.250 FPS (1536 spf)
Bit depth: 16 bits
Compression mode: Lossy
Stream size: 161 MiB (11%)
Alignment: Split accross interleaves
Interleave, duration: 42 ms (1.00 video frame)
Interleave, preload duratio: 500 ms
Service kind: Complete Ma
Ссылка 22 пули: Бессмертный / L'immortel (HDRip) скачать торрент Боевик - Торрент-Трекер находится под похожими раздачами Download Torrent
22 пули: Бессмертный / L'immortel (HDRip) скачать торрент Боевик - Торрент-Трекер
Скриншоты 22 пули: Бессмертный / L'immortel

скачать торрент, Игры на PC, Download Torrent, мультфильм, фильм, hdrip, Боевик
Добавил: SxS | Просмотров: 41 | Рейтинг: 0.0/0
Добавлять комментарии могут только зарегистрированные пользователи.
[ Регистрация | Вход ]
Ужасы [101]
Horrors
Фантастика [86]
Fantastic
Боевик [101]
Action
Триллер [104]
Thriller
Криминал [3]
Crime
Военный [2]
Military
Вестерн [11]
Western
Документальный [6]
Documentary
Биография [4]
Biography
Драма [264]
Drama
Мелодрама [24]
Melodrama
Комедия [77]
Comedy
Мюзикл [7]
Musical
Приключения [13]
Adventure
Пародия [6]
Parody
Мультфильмы [23]
Cartoons
Мультсериал [1]
Animated series
Аниме [2]
Anime
Форма входа
Поиск
Лучшие раздачи